Аvа Spаrххх & Veronica Radke – Working The Earth

Angelica - Good Night KissSexart  - Carla Cox - The last night (Orgy)

Posted in HD Porn, Lesbian, Pornstar, Sex Movies | 19363 Views |


Rate this girl !!!




Аvа Spаrххх & Veronica Radke – Working The Earth\r\nWebYoung.com 2013 г.Lesbians, Oral Sex, FaceSitting, Close Ups, Breasts, Shaved\r\n\r\nАvа Spаrххх & Veronica Radke – Working The Earth\r\n\r\nАvа Spаrххх & Veronica Radke – Working The Earth\r\n\r\nАvа Spаrххх & Veronica Radke – Working The Earth\r\n\r\nFile: Аvа Spаrххх & Veronica Radke – Working The Earth.mp4\r\nSize: 1004577854 bytes (958.04 MiB), duration: 00:19:38, avg.bitrate: 6822 kb/s\r\nAudio: aac, 44100 Hz, 2 channels, s16, 118 kb/s (eng)\r\nVideo: h264, yuv420p, 1920×1080, 6694 kb/s, 29.97 fps(r) (eng)



DOWNLOAD

Keep2share.cc - Uploaded.net - Openload.co - Rapidu.net


http://ul.to/ta5x5132
http://fileom.com/bdzgjaslziri/_v4.V3r.R4dk3.mp4.html
http://ryushare.com/hb7mvr8qw1xu/_v4.V3r.R4dk3.mp4
http://ul.to/1pynrm3q/_v4.V3r.R4dk3.mp4
http://k2s.cc/file/57a78f186ca2e/_v4.V3r.R4dk3.mp4


Premium here:
uploaded.net
keep2share.cc
rapidu.net.cc

Teens related to Аvа Spаrххх & Veronica Radke – Working The Earth


Lola Taylor – Hardcore ryushare uploaded keep2share

Lola Taylor – Hardcore

Amateur HD Porn Video 4576 ryushare uploaded keep2share

Amateur HD Porn Video 4576

Jessie Volt, Sierra Nevadah – Blonde Seduction ryushare uploaded keep2share

Jessie Volt, Sierra Nevadah – Blonde Seduction

Dusya – Crazy Adult Massage ryushare uploaded keep2share

Dusya – Crazy Adult Massage

Porno movies young teens lesbian 5061 ryushare uploaded keep2share

Porno movies young teens lesbian 5061

Milagres – A Cool Tool For Me ryushare uploaded keep2share

Milagres – A Cool Tool For Me

Hot Teen Sex 3611 ryushare uploaded keep2share

Hot Teen Sex 3611

Tube Young Sex 1390 ryushare uploaded keep2share

Tube Young Sex 1390

Wow Porn Movies download) 225955 ryushare uploaded keep2share

Wow Porn Movies download) 225955

Wow porn hd downloads 225727 ryushare uploaded keep2share

Wow porn hd downloads 225727

Porn with gorgeous redhead ryushare uploaded keep2share

Porn with gorgeous redhead

Free Porn Videos Xxx Movies Pussy Porn 224126 ryushare uploaded keep2share

Free Porn Videos Xxx Movies Pussy Porn 224126

The best Teen sex 2111 ryushare uploaded keep2share

The best Teen sex 2111

Watch Teen Sex Videos HD 3515 ryushare uploaded keep2share

Watch Teen Sex Videos HD 3515

caprice videos xxx ryushare uploaded keep2share

caprice videos xxx

sexxxxxxx mp 3 xxxhd 226194 ryushare uploaded keep2share

sexxxxxxx mp 3 xxxhd 226194

www 000-sexmovies 226286 ryushare uploaded keep2share

www 000-sexmovies 226286

Tube xxx 224380 ryushare uploaded keep2share

Tube xxx 224380

A lot of cocks for a teen ryushare uploaded keep2share

A lot of cocks for a teen

FuckStudies.com El Storm ryushare uploaded keep2share

FuckStudies.com El Storm

Hot Teen Sex HD videos 5653 ryushare uploaded keep2share

Hot Teen Sex HD videos 5653

yess xxx mkv 226512 ryushare uploaded keep2share

yess xxx mkv 226512

Teens sex mania 225041 ryushare uploaded keep2share

Teens sex mania 225041

Teen porn movies 1779 ryushare uploaded keep2share

Teen porn movies 1779

Young xxx 224648 ryushare uploaded keep2share

Young xxx 224648

Kiara Lord – Offline Erotica ryushare uploaded keep2share

Kiara Lord – Offline Erotica

High Definition Movies on HD Teen Porn XXX Tube 223972 ryushare uploaded keep2share

High Definition Movies on HD Teen Porn XXX Tube 223972

1080p pornstar 226032 ryushare uploaded keep2share

1080p pornstar 226032

Teen porn movies 225220 ryushare uploaded keep2share

Teen porn movies 225220

HD Porn Teen Sex Videos 1122 ryushare uploaded keep2share

HD Porn Teen Sex Videos 1122

Susie – Body Language ryushare uploaded keep2share

Susie – Body Language

hottest sex in the world video(IN www xxx video com) ryushare uploaded keep2share

hottest sex in the world video(IN www xxx video com)

beautifull girls fuck ryushare uploaded keep2share

beautifull girls fuck

Hd young videos 5293 ryushare uploaded keep2share

Hd young videos 5293

Good Teen Tube Sexy Young Naked Girls Movies 4454 ryushare uploaded keep2share

Good Teen Tube Sexy Young Naked Girls Movies 4454

Report broken links / Post a comment

You must be logged in to post a comment.



General\r\nComplete name : H:HD TEENS PORN RYUSHARE UPLOADED KEEP2SHAREАvа Spаrххх & Veronica Radke - Working The Earth.mp4\r\nFormat : MPEG-4\r\nFormat profile : Base Media\r\nCodec ID : isom\r\nFile size : 958 MiB\r\nDuration : 19mn 38s\r\nOverall bit rate mode : Variable\r\nOverall bit rate : 6 819 Kbps\r\nWriting application : Lavf52.93.0\r\n\r\nVideo\r\nID : 1\r\nFormat : AVC\r\nFormat/Info : Advanced Video Codec\r\nFormat profile : [email protected]\r\nFormat settings, CABAC : Yes\r\nFormat settings, ReFrames : 4 frames\r\nCodec ID : avc1\r\nCodec ID/Info : Advanced Video Coding\r\nDuration : 19mn 38s\r\nBit rate : 6 800 Kbps\r\nWidth : 1 920 pixels\r\nHeight : 1 080 pixels\r\nDisplay aspect ratio : 16:9\r\nFrame rate mode : Constant\r\nFrame rate : 29.970 fps\r\nColor space : YUV\r\nChroma subsampling : 4:2:0\r\nBit depth : 8 bits\r\nScan type : Progressive\r\nBits/(Pixel*Frame) : 0.109\r\nStream size : 940 MiB (98%)\r\nWriting library : x264 core 107\r\nEncoding settings : cabac=1 / ref=3 / deblock=1:0:0 / analyse=0x3:0x113 / me=umh / subme=6 / psy=1 / psy_rd=1.00:0.00 / mixed_ref=1 / me_range=16 / chroma_me=1 / trellis=0 / 8x8dct=1 / cqm=0 / deadzone=21,11 / fast_pskip=1 / chroma_qp_offset=-2 / threads=1 / sliced_threads=0 / nr=0 / decimate=1 / interlaced=0 / constrained_intra=0 / bframes=2 / b_pyramid=2 / b_adapt=2 / b_bias=0 / direct=2 / weightb=1 / open_gop=0 / weightp=0 / keyint=30 / keyint_min=16 / scenecut=0 / intra_refresh=0 / rc_lookahead=30 / rc=abr / mbtree=1 / bitrate=6800 / ratetol=1.0 / qcomp=0.60 / qpmin=1 / qpmax=31 / qpstep=4 / ip_ratio=1.41 / aq=1:1.00\r\nLanguage : English\r\n\r\nAudio\r\nID : 2\r\nFormat : AAC\r\nFormat/Info : Advanced Audio Codec\r\nFormat profile : LC\r\nCodec ID : 40\r\nDuration : 19mn 38s\r\nBit rate mode : Variable\r\nBit rate : 119 Kbps\r\nChannel(s) : 2 channels\r\nChannel positions : Front: L R\r\nSampling rate : 44.1 KHz\r\nCompression mode : Lossy\r\nDelay relative to video : 67ms\r\nStream size : 16.7 MiB (2%)\r\nLanguage : English