1By-Day.com Danika – Undercover Banana

18OnlyGirls.com - Violette[AbbyWinters.com] Sasha R.

Posted in HD Porn, Pornstar, Sex Movies, Teen | 8119 Views |


Rate this girl !!!




cover\r\n\r\n1920x1080p / MP4 / 1.13 GB\r\n

[1By-Day.com] Danika – Undercover Banana

\r\nSCREENSHOTS:\r\n\r\nscreens



DOWNLOAD

Keep2share.cc - Uploaded.net - Openload.co - Rapidu.net


http://ul.to/napmoch9/d4nik4.i080.mp4

http://played.to/au0qrgt10yjw


Premium here:
uploaded.net
keep2share.cc
rapidu.net.cc


Teens related to 1By-Day.com Danika – Undercover Banana


Sexy white skin teen porn young 226422 ryushare uploaded keep2share

Sexy white skin teen porn young 226422

Kennedy Leigh – Out With A Bang ryushare uploaded keep2share

Kennedy Leigh – Out With A Bang

TrickyMasseur.com Anjelica ryushare uploaded keep2share

TrickyMasseur.com Anjelica

Hd young videos 5293 ryushare uploaded keep2share

Hd young videos 5293

Tracy Smile – Soldier ryushare uploaded keep2share

Tracy Smile – Soldier

Teen Sex Porn Videos Free Nude Teens 224533 ryushare uploaded keep2share

Teen Sex Porn Videos Free Nude Teens 224533

Young teens tube hot girls free porn video 1951 ryushare uploaded keep2share

Young teens tube hot girls free porn video 1951

Hot hd teen sex videos 3484 ryushare uploaded keep2share

Hot hd teen sex videos 3484

Sandy Sweet Massage ryushare uploaded keep2share

Sandy Sweet Massage

Janette – Today Was Amazing ryushare uploaded keep2share

Janette – Today Was Amazing

free download sexy xxx mp4 movies com ryushare uploaded keep2share

free download sexy xxx mp4 movies com

Teen Sex Movies Young Porn Tube Vids 2420 ryushare uploaded keep2share

Teen Sex Movies Young Porn Tube Vids 2420

Adult Hardcore XXX Sex Videos 4702 ryushare uploaded keep2share

Adult Hardcore XXX Sex Videos 4702

Fucked by two cocks in all holes ryushare uploaded keep2share

Fucked by two cocks in all holes

Teen porn movies 2560 ryushare uploaded keep2share

Teen porn movies 2560

Teen acrobat sex ryushare uploaded keep2share

Teen acrobat sex

HD Porn Videos 5509 ryushare uploaded keep2share

HD Porn Videos 5509

Young Sex Movies 224764 ryushare uploaded keep2share

Young Sex Movies 224764

Porn teen hd downloads 224098 ryushare uploaded keep2share

Porn teen hd downloads 224098

Young Sex Movies 224539 ryushare uploaded keep2share

Young Sex Movies 224539

Wow Porn Movies download) 225050 ryushare uploaded keep2share

Wow Porn Movies download) 225050

sex vedios yang grls end boys ryushare uploaded keep2share

sex vedios yang grls end boys

Fresh Teen Videos 224890 ryushare uploaded keep2share

Fresh Teen Videos 224890

Girls do porn in HD 225969 ryushare uploaded keep2share

Girls do porn in HD 225969

Teens in Porno young porn videos and free teen sex 224928 ryushare uploaded keep2share

Teens in Porno young porn videos and free teen sex 224928

8 Teen XXX – Teen Sex 4550 ryushare uploaded keep2share

8 Teen XXX – Teen Sex 4550

avi full hd porn 226178 ryushare uploaded keep2share

avi full hd porn 226178

Teen Tits Tube, Young Girls Porn Videos 5028 ryushare uploaded keep2share

Teen Tits Tube, Young Girls Porn Videos 5028

Hot sex girls movies download 3478 ryushare uploaded keep2share

Hot sex girls movies download 3478

www hdxxx porn tube 226248 ryushare uploaded keep2share

www hdxxx porn tube 226248

WebYoung.com Sammie Daniels, Samantha Rone ryushare uploaded keep2share

WebYoung.com Sammie Daniels, Samantha Rone

klixen cipriana and cindy 226252 ryushare uploaded keep2share

klixen cipriana and cindy 226252

J. Joanna – I’m Eve. Want An Apple? ryushare uploaded keep2share

J. Joanna – I’m Eve. Want An Apple?

Uploaded net porn 3760 ryushare uploaded keep2share

Uploaded net porn 3760

Tanned Fucking for money in the street ryushare uploaded keep2share

Tanned Fucking for money in the street

Report broken links / Post a comment

You must be logged in to post a comment.



General\r\nComplete name : J:HD Teens Movies Young Downloads Online Clips Scenes[1By-Day.com] Danika – Undercover Banana.mp4\r\nFormat : MPEG-4\r\nFormat profile : Base Media / Version 2\r\nCodec ID : mp42\r\nFile size : 1.13 GiB\r\nDuration : 19mn 40s\r\nOverall bit rate mode : Variable\r\nOverall bit rate : 8 200 Kbps\r\nMovie name : ES\r\nEncoded date : UTC 2014-10-03 13:34:47\r\nTagged date : UTC 2014-10-06 01:15:38\r\n©TIM : 00;00;00;00\r\n©TSC : 30000\r\n©TSZ : 1001\r\n\r\nVideo\r\nID : 1\r\nFormat : AVC\r\nFormat/Info : Advanced Video Codec\r\nFormat profile : [email protected]\r\nFormat settings, CABAC : Yes\r\nFormat settings, ReFrames : 3 frames\r\nFormat settings, GOP : M=3, N=29\r\nCodec ID : avc1\r\nCodec ID/Info : Advanced Video Coding\r\nDuration : 19mn 40s\r\nBit rate mode : Variable\r\nBit rate : 8 000 Kbps\r\nWidth : 1 920 pixels\r\nHeight : 1 080 pixels\r\nDisplay aspect ratio : 16:9\r\nFrame rate mode : Constant\r\nFrame rate : 29.970 fps\r\nStandard : NTSC\r\nColor space : YUV\r\nChroma subsampling : 4:2:0\r\nBit depth : 8 bits\r\nScan type : Progressive\r\nBits/(Pixel*Frame) : 0.129\r\nStream size : 1.10 GiB (98%)\r\nLanguage : English\r\nEncoded date : UTC 2014-10-03 13:34:47\r\nTagged date : UTC 2014-10-03 13:34:47\r\nColor primaries : BT.709\r\nTransfer characteristics : BT.709\r\nMatrix coefficients : BT.709\r\n\r\nAudio\r\nID : 2\r\nFormat : AAC\r\nFormat/Info : Advanced Audio Codec\r\nFormat profile : LC\r\nCodec ID : 40\r\nDuration : 19mn 40s\r\nSource duration : 19mn 40s\r\nBit rate mode : Variable\r\nBit rate : 192 Kbps\r\nMaximum bit rate : 243 Kbps\r\nChannel count : 2 channels\r\nChannel positions : Front: L R\r\nSampling rate : 48.0 KHz\r\nCompression mode : Lossy\r\nStream size : 26.7 MiB (2%)\r\nSource stream size : 26.7 MiB (2%)\r\nLanguage : English\r\nEncoded date : UTC 2014-10-03 13:34:47\r\nTagged date : UTC 2014-10-03 13:34:47\r\n\r\n