21Naturals.com Ashley

21Naturals.com Ivana Sugar – Urges[Castingcouch-X.com] Alex Tanner

Posted in HD Porn, Pornstar, Sex Movies, Teen | 15109 Views |


Rate this girl !!!




cover\r\n\r\n1920x1080p / MP4 / 1.53 GB\r\n

[21Naturals.com] Ashley

\r\nSCREENSHOTS:\r\n\r\nscreens



DOWNLOAD

Keep2share.cc - Uploaded.net - Openload.co - Rapidu.net


http://played.to/ypgcgp35rr93

http://ul.to/bmskpj95/21N4tur4ls.13.09.01.4shl3y.Tog3th3r.X.X.X.1080p.mp4


Premium here:
uploaded.net
keep2share.cc
rapidu.net.cc


Teens related to 21Naturals.com Ashley


HD Porn Videos 2300 ryushare uploaded keep2share

HD Porn Videos 2300

www 18porn com/hot hd video 226736 ryushare uploaded keep2share

www 18porn com/hot hd video 226736

Nude Teens fucking hard 5075 ryushare uploaded keep2share

Nude Teens fucking hard 5075

yang garls boy xxx ryushare uploaded keep2share

yang garls boy xxx

Free Porn Videos Xxx Movies Pussy Porn 4959 ryushare uploaded keep2share

Free Porn Videos Xxx Movies Pussy Porn 4959

xxx vergn 226412 ryushare uploaded keep2share

xxx vergn 226412

Orgy with young teens ryushare uploaded keep2share

Orgy with young teens

Adult Hardcore XXX Sex Videos 2982 ryushare uploaded keep2share

Adult Hardcore XXX Sex Videos 2982

Teen Sex Videos Tube Movies 225875 ryushare uploaded keep2share

Teen Sex Videos Tube Movies 225875

Young Virgin Pussy Teen Fuck Tube 5513 ryushare uploaded keep2share

Young Virgin Pussy Teen Fuck Tube 5513

Teenies Videos – Teen Porn, Teen Sex, XXX Free Videos 4444 ryushare uploaded keep2share

Teenies Videos – Teen Porn, Teen Sex, XXX Free Videos 4444

HD teen sex tube 3568 ryushare uploaded keep2share

HD teen sex tube 3568

Teen porn movies 225949 ryushare uploaded keep2share

Teen porn movies 225949

Wow porn hd downloads 224435 ryushare uploaded keep2share

Wow porn hd downloads 224435

Free High Quality Sex Movies 1698 ryushare uploaded keep2share

Free High Quality Sex Movies 1698

tube8hd video ryushare uploaded keep2share

tube8hd video

Teen Sex Videos Tube Movies 225334 ryushare uploaded keep2share

Teen Sex Videos Tube Movies 225334

Porn party teen girls 225342 ryushare uploaded keep2share

Porn party teen girls 225342

Hardcore sex videos in the high definition quality 4529 ryushare uploaded keep2share

Hardcore sex videos in the high definition quality 4529

Hot Teen Sex HD videos 224298 ryushare uploaded keep2share

Hot Teen Sex HD videos 224298

Teen Sex Movies Young Porn Tube Vids 1253 ryushare uploaded keep2share

Teen Sex Movies Young Porn Tube Vids 1253

TrickyMasseur.com Joanna ryushare uploaded keep2share

TrickyMasseur.com Joanna

Fresh Teen Videos 225576 ryushare uploaded keep2share

Fresh Teen Videos 225576

www free hd virgin porn download com ryushare uploaded keep2share

www free hd virgin porn download com

Teen xxx sex hd 5505 ryushare uploaded keep2share

Teen xxx sex hd 5505

www dani daniels hd xxx video com 226136 ryushare uploaded keep2share

www dani daniels hd xxx video com 226136

Teen xxx sex hd 225800 ryushare uploaded keep2share

Teen xxx sex hd 225800

HQ Sex Movies Download 3382 ryushare uploaded keep2share

HQ Sex Movies Download 3382

Wow porn hd downloads 224283 ryushare uploaded keep2share

Wow porn hd downloads 224283

download hot pussy xxx HD video ryushare uploaded keep2share

download hot pussy xxx HD video

Teen Sex Movies Young Porn Tube Vids 2104 ryushare uploaded keep2share

Teen Sex Movies Young Porn Tube Vids 2104

HQ Sex Movies Download 1982 ryushare uploaded keep2share

HQ Sex Movies Download 1982

download hd sex vids for pc 226447 ryushare uploaded keep2share

download hd sex vids for pc 226447

Jessica Rayne – Jerk Off Instruction – Blowjob ryushare uploaded keep2share

Jessica Rayne – Jerk Off Instruction – Blowjob

Elly (My Secret Lover) ryushare uploaded keep2share

Elly (My Secret Lover)

Report broken links / Post a comment

You must be logged in to post a comment.



[21Naturals.com] Ashley \r\nGeneral\r\nComplete name : J:HD Teens Movies Young Downloads Online Clips Scenes [21Naturals.com] Ashley .13.09.01.AshlEy.TogEthEr.X.X.X.1080p.mp4\r\nFormat : MPEG-4\r\nFormat profile : Base Media\r\nCodec ID : isom\r\nFile size : 1.53 GiB\r\nDuration : 35mn 14s\r\nOverall bit rate : 6 197 Kbps\r\nMovie name : Downloaded from RARBG.COM\r\nWriting application : Lavf55.12.102\r\nComment : Downloaded from RARBG.COM\r\n\r\nVideo\r\nID : 1\r\nFormat : AVC\r\nFormat/Info : Advanced Video Codec\r\nFormat profile : [email protected]\r\nFormat settings, CABAC : Yes\r\nFormat settings, ReFrames : 3 frames\r\nCodec ID : avc1\r\nCodec ID/Info : Advanced Video Coding\r\nDuration : 35mn 14s\r\nBit rate : 6 001 Kbps\r\nWidth : 1 920 pixels\r\nHeight : 1 080 pixels\r\nDisplay aspect ratio : 16:9\r\nFrame rate mode : Constant\r\nFrame rate : 25.000 fps\r\nStandard : PAL\r\nColor space : YUV\r\nChroma subsampling : 4:2:0\r\nBit depth : 8 bits\r\nScan type : Progressive\r\nBits/(Pixel*Frame) : 0.116\r\nStream size : 1.48 GiB (97%)\r\nLanguage : English\r\nColor primaries : BT.709\r\nTransfer characteristics : BT.709\r\nMatrix coefficients : BT.709\r\n\r\nAudio\r\nID : 2\r\nFormat : AAC\r\nFormat/Info : Advanced Audio Codec\r\nFormat profile : LC\r\nCodec ID : 40\r\nDuration : 35mn 14s\r\nBit rate mode : Constant\r\nBit rate : 192 Kbps\r\nChannel count : 2 channels\r\nChannel positions : Front: L R\r\nSampling rate : 48.0 KHz\r\nCompression mode : Lossy\r\nStream size : 47.8 MiB (3%)\r\nLanguage : English\r\n\r\n