21Naturals.com Jenny Glam – Everlating memories

X-Angels.com LidaSexArt.com Dominica Phoenix, Katy Rose, Lexie Dona

Posted in HD Porn, Pornstar, Sex Movies, Teen | 8755 Views |


Rate this girl !!!




cover\r\n\r\n1920x1080p / MP4 / 852.95 MB\r\n

[21Naturals.com] Jenny Glam – Everlating memories

\r\nSCREENSHOTS:\r\n\r\nscreens



DOWNLOAD

Keep2share.cc - Uploaded.net - Openload.co - Rapidu.net



http://played.to/sddvn7hl9umh

http://ul.to/8d3rs558/4oo1oo.1o8op.mp4


Premium here:
uploaded.net
keep2share.cc
rapidu.net.cc


Teens related to 21Naturals.com Jenny Glam – Everlating memories


x-art no turning back part two video 226470 ryushare uploaded keep2share

x-art no turning back part two video 226470

www hd xxx vadio ryushare uploaded keep2share

www hd xxx vadio

Young teens tube hot girls free porn video 225076 ryushare uploaded keep2share

Young teens tube hot girls free porn video 225076

Teen Sex Movies 224292 ryushare uploaded keep2share

Teen Sex Movies 224292

www pinkworld hd movies com 226583 ryushare uploaded keep2share

www pinkworld hd movies com 226583

Hardcore sex videos in the high definition quality 1260 ryushare uploaded keep2share

Hardcore sex videos in the high definition quality 1260

Young Sex Movies 224073 ryushare uploaded keep2share

Young Sex Movies 224073

Amazing Outdoors – Beautiful Brunette ryushare uploaded keep2share

Amazing Outdoors – Beautiful Brunette

Www sexy videos shart mb com 226066 ryushare uploaded keep2share

Www sexy videos shart mb com 226066

Young teens tube hot girls free porn video 5384 ryushare uploaded keep2share

Young teens tube hot girls free porn video 5384

Teenies Videos – Teen Porn, Teen Sex, XXX Free Videos 5072 ryushare uploaded keep2share

Teenies Videos – Teen Porn, Teen Sex, XXX Free Videos 5072

18 year girl xxxx downlode ryushare uploaded keep2share

18 year girl xxxx downlode

wow girl outdor besd hd porn vedio dawunlod 2015 ryushare uploaded keep2share

wow girl outdor besd hd porn vedio dawunlod 2015

8 Teen XXX – Teen Sex 224358 ryushare uploaded keep2share

8 Teen XXX – Teen Sex 224358

Free Young Porn Videos XXX Teen Porn 5149 ryushare uploaded keep2share

Free Young Porn Videos XXX Teen Porn 5149

Hot Teen Sex HD videos 224298 ryushare uploaded keep2share

Hot Teen Sex HD videos 224298

kyra hot and kiara lord klixen three teasing tongues 226098 ryushare uploaded keep2share

kyra hot and kiara lord klixen three teasing tongues 226098

Two Teasing Tongues 10 – B ryushare uploaded keep2share

Two Teasing Tongues 10 – B

Teen Porn XXX Tube 224730 ryushare uploaded keep2share

Teen Porn XXX Tube 224730

Young Sex Movies 225490 ryushare uploaded keep2share

Young Sex Movies 225490

8 Teen XXX – Teen Sex 2117 ryushare uploaded keep2share

8 Teen XXX – Teen Sex 2117

www xxxfree vedio sexy com 226492 ryushare uploaded keep2share

www xxxfree vedio sexy com 226492

Defloration porn videos 720p direct download free ryushare uploaded keep2share

Defloration porn videos 720p direct download free

Beautiful small tits ryushare uploaded keep2share

Beautiful small tits

[WowPorn.com] Daphne & Ria Sun (Thorough Fingers / ryushare uploaded keep2share

[WowPorn.com] Daphne & Ria Sun (Thorough Fingers /

Wow girls hd porn teens 224580 ryushare uploaded keep2share

Wow girls hd porn teens 224580

Hardcore Sex Hub 225062 ryushare uploaded keep2share

Hardcore Sex Hub 225062

HD porn uploaded 4280 ryushare uploaded keep2share

HD porn uploaded 4280

Hot Teen Sex 224365 ryushare uploaded keep2share

Hot Teen Sex 224365

Teen Tits Tube, Young Girls Porn Videos 225965 ryushare uploaded keep2share

Teen Tits Tube, Young Girls Porn Videos 225965

Teens in Porno young porn videos and free teen sex 5495 ryushare uploaded keep2share

Teens in Porno young porn videos and free teen sex 5495

[NuruMassage.com / FantasyMassage.com] Katrina Jade And Kimmy Granger ryushare uploaded keep2share

[NuruMassage.com / FantasyMassage.com] Katrina Jade And Kimmy Granger

Free Porn Videos Xxx Movies Pussy Porn 1568 ryushare uploaded keep2share

Free Porn Videos Xxx Movies Pussy Porn 1568

Christina Snow – NubilesFilms – Join In ryushare uploaded keep2share

Christina Snow – NubilesFilms – Join In

Teen sex xxx hd 4873 ryushare uploaded keep2share

Teen sex xxx hd 4873

Report broken links / Post a comment

You must be logged in to post a comment.



[21Naturals.com] Jenny Glam – Everlating memories \r\nGeneral\r\nComplete name : J:HD Teens Movies Young Downloads Online Clips Scenes [21Naturals.com] Jenny Glam – Everlating memories 4oo1oo.1o8op.mp4\r\nFormat : MPEG-4\r\nFormat profile : Base Media / Version 2\r\nCodec ID : mp42\r\nFile size : 853 MiB\r\nDuration : 19mn 13s\r\nOverall bit rate mode : Variable\r\nOverall bit rate : 6 205 Kbps\r\nEncoded date : UTC 2014-10-09 10:10:37\r\nTagged date : UTC 2014-10-09 10:10:37\r\n\r\nVideo\r\nID : 1\r\nFormat : AVC\r\nFormat/Info : Advanced Video Codec\r\nFormat profile : [email protected]\r\nFormat settings, CABAC : Yes\r\nFormat settings, ReFrames : 4 frames\r\nCodec ID : avc1\r\nCodec ID/Info : Advanced Video Coding\r\nDuration : 19mn 13s\r\nBit rate : 6 011 Kbps\r\nWidth : 1 920 pixels\r\nHeight : 1 080 pixels\r\nDisplay aspect ratio : 16:9\r\nFrame rate mode : Constant\r\nFrame rate : 25.000 fps\r\nStandard : PAL\r\nColor space : YUV\r\nChroma subsampling : 4:2:0\r\nBit depth : 8 bits\r\nScan type : Progressive\r\nBits/(Pixel*Frame) : 0.116\r\nStream size : 826 MiB (97%)\r\nLanguage : English\r\nEncoded date : UTC 2014-10-09 10:10:37\r\nTagged date : UTC 2014-10-09 10:10:37\r\nColor primaries : BT.709\r\nTransfer characteristics : BT.709\r\nMatrix coefficients : BT.709\r\n\r\nAudio\r\nID : 2\r\nFormat : AAC\r\nFormat/Info : Advanced Audio Codec\r\nFormat profile : LC\r\nCodec ID : 40\r\nDuration : 19mn 13s\r\nBit rate mode : Variable\r\nBit rate : 192 Kbps\r\nMaximum bit rate : 339 Kbps\r\nChannel count : 2 channels\r\nChannel positions : Front: L R\r\nSampling rate : 48.0 KHz\r\nCompression mode : Lossy\r\nStream size : 26.0 MiB (3%)\r\nLanguage : English\r\nEncoded date : UTC 2014-10-09 10:10:37\r\nTagged date : UTC 2014-10-09 10:10:37\r\n\r\n