8 Teen XXX – Teen Sex 1751

High Definition Movies on HD 1754Hot Teen Sex HD videos 1748

Posted in Amateur, HD Porn, Sex Movies, Teen | 26247 Views |


Rate this girl !!!




\r\n\r\nhttp://img102.imagetwist.com/i/05265/dgt7tbd1lqy3.jpg\r\n\r\n Link(511 Mb|19:36||1280*720||WMV)



DOWNLOAD

Keep2share.cc - Uploaded.net - Openload.co - Rapidu.net


http://keep2share.cc/file/95db5bca103a8
http://ryushare.com/z12eo0f4y94z/NBGRSyn.rar
http://ul.to/zak3pmqj


Premium here:
uploaded.net
keep2share.cc
rapidu.net.cc


Teens related to 8 Teen XXX – Teen Sex 1751


pc full hd video xxx download ryushare uploaded keep2share

pc full hd video xxx download

Free High Quality Sex Movies 2766 ryushare uploaded keep2share

Free High Quality Sex Movies 2766

full free download 720p hd porn movies 226240 ryushare uploaded keep2share

full free download 720p hd porn movies 226240

Creampie-Angels.com Licie ryushare uploaded keep2share

Creampie-Angels.com Licie

Free High Quality Sex Movies 3816 ryushare uploaded keep2share

Free High Quality Sex Movies 3816

Sweet Teen Porn – Young Porn Videos 4113 ryushare uploaded keep2share

Sweet Teen Porn – Young Porn Videos 4113

hd low space porn video ryushare uploaded keep2share

hd low space porn video

Porn party teen girls 224803 ryushare uploaded keep2share

Porn party teen girls 224803

telecharger free young sex mp4 hd ryushare uploaded keep2share

telecharger free young sex mp4 hd

Teen 18 Porn XXX Clips Naked 2154 ryushare uploaded keep2share

Teen 18 Porn XXX Clips Naked 2154

HD Porn Teen Sex Videos 224669 ryushare uploaded keep2share

HD Porn Teen Sex Videos 224669

HD Porn Teen Sex Videos 1629 ryushare uploaded keep2share

HD Porn Teen Sex Videos 1629

First time Sexual Films 18 sex xxx 3607 ryushare uploaded keep2share

First time Sexual Films 18 sex xxx 3607

pc xxx movie clips 226764 ryushare uploaded keep2share

pc xxx movie clips 226764

Kiki – Panties Free Day ryushare uploaded keep2share

Kiki – Panties Free Day

www young sex perattes mp4 226746 ryushare uploaded keep2share

www young sex perattes mp4 226746

Gianna – Real Blonde Love Doll Screws Her BF ryushare uploaded keep2share

Gianna – Real Blonde Love Doll Screws Her BF

Teen porn movies 2556 ryushare uploaded keep2share

Teen porn movies 2556

Hd quality – Teen sex video 2401 ryushare uploaded keep2share

Hd quality – Teen sex video 2401

Teen Sex Movies Young Porn Tube Vids 224709 ryushare uploaded keep2share

Teen Sex Movies Young Porn Tube Vids 224709

xvideos hd com dounlod 226335 ryushare uploaded keep2share

xvideos hd com dounlod 226335

Model porno sex 4099 ryushare uploaded keep2share

Model porno sex 4099

fucking pix hd download ryushare uploaded keep2share

fucking pix hd download

xxxsexHDvieo 226349 ryushare uploaded keep2share

xxxsexHDvieo 226349

Denise Sky ryushare uploaded keep2share

Denise Sky

Free Porn Videos Xxx Movies Pussy Porn 5286 ryushare uploaded keep2share

Free Porn Videos Xxx Movies Pussy Porn 5286

xxx sexhddownlod 226729 ryushare uploaded keep2share

xxx sexhddownlod 226729

Marry – Time To Myself – Nubiles ryushare uploaded keep2share

Marry – Time To Myself – Nubiles

Teenies Videos – Teen Porn, Teen Sex, XXX Free Videos 224383 ryushare uploaded keep2share

Teenies Videos – Teen Porn, Teen Sex, XXX Free Videos 224383

Girls do porn in HD 224981 ryushare uploaded keep2share

Girls do porn in HD 224981

[AbbyWinters.com] Sasha R. ryushare uploaded keep2share

[AbbyWinters.com] Sasha R.

Porno young teens movies 2581 ryushare uploaded keep2share

Porno young teens movies 2581

First time Sexual Films 18 sex xxx 225815 ryushare uploaded keep2share

First time Sexual Films 18 sex xxx 225815

www video9 in 226088 ryushare uploaded keep2share

www video9 in 226088

Sara Luvv (Every Inch) ryushare uploaded keep2share

Sara Luvv (Every Inch)

Report broken links / Post a comment

You must be logged in to post a comment.



General\r\nComplete name : D:HD Teens Download Porn Sex clips movies Tube.xxxNBGRSynNBGRSyn.wmv\r\nFormat : Windows Media\r\nFile size : 511 MiB\r\nDuration : 19mn 36s\r\nOverall bit rate mode : Constant\r\nOverall bit rate : 3 642 Kbps\r\nMaximum Overall bit rate : 3 659 Kbps\r\nEncoded date : UTC 2008-07-01 18:52:23.171\r\nWriting application : TMPGEnc 4.0 XPress Version. 4.2.3.193\r\n\r\nVideo\r\nID : 2\r\nFormat : VC-1\r\nFormat profile : [email protected]\r\nCodec ID : WMV3\r\nCodec ID/Info : Windows Media Video 9\r\nCodec ID/Hint : WMV3\r\nDescription of the codec : Windows Media Video 9 - Professional\r\nDuration : 19mn 36s\r\nBit rate mode : Constant\r\nBit rate : 3 500 Kbps\r\nWidth : 1 280 pixels\r\nHeight : 720 pixels\r\nDisplay aspect ratio : 16:9\r\nFrame rate : 29.970 fps\r\nColor space : YUV\r\nChroma subsampling : 4:2:0\r\nBit depth : 8 bits\r\nScan type : Progressive\r\nCompression mode : Lossy\r\nBits/(Pixel*Frame) : 0.127\r\nStream size : 491 MiB (96%)\r\nLanguage : English (US)\r\n\r\nAudio\r\nID : 1\r\nFormat : WMA\r\nFormat version : Version 2\r\nCodec ID : 161\r\nCodec ID/Info : Windows Media Audio\r\nDescription of the codec : Windows Media Audio 9.2 - 128 kbps, 48 kHz, stereo 1-pass CBR\r\nDuration : 19mn 36s\r\nBit rate mode : Constant\r\nBit rate : 128 Kbps\r\nChannel(s) : 2 channels\r\nSampling rate : 48.0 KHz\r\nBit depth : 16 bits\r\nStream size : 18.0 MiB (4%)\r\nLanguage : English (US)\r\n\r\n