Adele Sunshine – George on Adele

Ariana Marie - BabysitterDani Jensen - NaughtyAmerica

Posted in HD Porn, Pornstar, Sex Movies, Teen | 11159 Views |


Rate this girl !!!




[MassageRooms.com] Adele Sunshine (George on Adele / 28.02.13) [2013., All Sex, Massage, Hardcore, 1080psch\r\n\r\npic\r\n\r\nActress name : Adele Sunshine \r\n\r\nName movie : George on Adele \r\n\r\nSubsites and site: MassageRooms.com\r\n\r\nGod production : 2013. \r\n\r\nGenre : All Sex, Massage, Hardcore Duration : 00:24:18 \r\n\r\nDescription : We had so much fun shooting the first ever scenes MassageRooms.com – after months of preparation and many weeks training for our main masseurs and massueuses, filming finally began in a private Asian spa in a remote part of Europe. Inside the quiet, serene and calming atmosphere of the massage spa, we were experiencing something wonderfully unique – genuine massage techniques used as impassioned foreplay for beautiful, sensual and romantic love scenes. Models from all over began to hear about what we were creating, and suddenly an exciting new project in the adult industry was born.\r\nVideo Format: MOVTip HD video : 1080p Video : MPEG4 Video (H264) 1920×1080 25fps 10000kbpsAudio : AAC 48000Hz stereo 115kbps\r\n\r\n\r\n\r\n\r\n\r\n\r\n\r\n



DOWNLOAD

Keep2share.cc - Uploaded.net - Openload.co - Rapidu.net


http://ul.to/z1irvab0/mr1042_george_on_adele_hd.mov
http://ryushare.com/5x2txhxmxs9e/mr1042_george_on_adele_hd.mov


Premium here:
uploaded.net
keep2share.cc
rapidu.net.cc

Teens related to Adele Sunshine – George on Adele


First time Sexual Films 18 sex xxx 223799 ryushare uploaded keep2share

First time Sexual Films 18 sex xxx 223799

Free Teen Porn Videos at Teen Sex Tube XXX 5283 ryushare uploaded keep2share

Free Teen Porn Videos at Teen Sex Tube XXX 5283

18OnlyGirls Nikita (Gina Devine) Here I Cum! ryushare uploaded keep2share

18OnlyGirls Nikita (Gina Devine) Here I Cum!

HD Porn Teen Sex Videos 225413 ryushare uploaded keep2share

HD Porn Teen Sex Videos 225413

Anabelle Pync – Anabelle’s sensual tease – 2014 ryushare uploaded keep2share

Anabelle Pync – Anabelle’s sensual tease – 2014

new pussy xxx 226162 ryushare uploaded keep2share

new pussy xxx 226162

TeenyLovers – Zlata ryushare uploaded keep2share

TeenyLovers – Zlata

cina video hdxxx 226321 ryushare uploaded keep2share

cina video hdxxx 226321

HD Teen Sex Tube 1620 ryushare uploaded keep2share

HD Teen Sex Tube 1620

Young Sex Movies 5695 ryushare uploaded keep2share

Young Sex Movies 5695

Good Teen Tube Sexy Young Naked Girls Movies 2157 ryushare uploaded keep2share

Good Teen Tube Sexy Young Naked Girls Movies 2157

Castingcouch-X.com Megan Rain ryushare uploaded keep2share

Castingcouch-X.com Megan Rain

video9 in xxxsex 226754 ryushare uploaded keep2share

video9 in xxxsex 226754

HD porn uploaded 3712 ryushare uploaded keep2share

HD porn uploaded 3712

Fresh Teen Videos 4156 ryushare uploaded keep2share

Fresh Teen Videos 4156

Good Teen Tube Sexy Young Naked Girls Movies 2795 ryushare uploaded keep2share

Good Teen Tube Sexy Young Naked Girls Movies 2795

pc xxx movie clips 226764 ryushare uploaded keep2share

pc xxx movie clips 226764

HD Porn Video 2499 ryushare uploaded keep2share

HD Porn Video 2499

Hd young videos 2232 ryushare uploaded keep2share

Hd young videos 2232

Movies Young legal porn 5205 ryushare uploaded keep2share

Movies Young legal porn 5205

Teen Sex Movies 2192 ryushare uploaded keep2share

Teen Sex Movies 2192

Young Sex Movies 3635 ryushare uploaded keep2share

Young Sex Movies 3635

Hardcore sex videos in the high definition quality 5010 ryushare uploaded keep2share

Hardcore sex videos in the high definition quality 5010

HQ Sex Movies Download 225936 ryushare uploaded keep2share

HQ Sex Movies Download 225936

Nude Teens fucking hard 223931 ryushare uploaded keep2share

Nude Teens fucking hard 223931

Sweet Teen Porn – Young Porn Videos 1653 ryushare uploaded keep2share

Sweet Teen Porn – Young Porn Videos 1653

sexy video download hd in low mb 226202 ryushare uploaded keep2share

sexy video download hd in low mb 226202

BRAZZERS sex hd videos download ryushare uploaded keep2share

BRAZZERS sex hd videos download

Wow Girls Porn Clips download 224666 ryushare uploaded keep2share

Wow Girls Porn Clips download 224666

Lola Taylor & Franck Franco – Saturday Night ryushare uploaded keep2share

Lola Taylor & Franck Franco – Saturday Night

Julie Vee ryushare uploaded keep2share

Julie Vee

Hot Teen Sex 5051 ryushare uploaded keep2share

Hot Teen Sex 5051

Free Young Porn Videos XXX Teen Porn 5208 ryushare uploaded keep2share

Free Young Porn Videos XXX Teen Porn 5208

Wow porn hd downloads 224185 ryushare uploaded keep2share

Wow porn hd downloads 224185

fuck from behind 226023 ryushare uploaded keep2share

fuck from behind 226023

Report broken links / Post a comment

You must be logged in to post a comment.



General\r\nComplete name : D:HD Teens Download Porn Sex clips movies Tubemr1042_george_on_adele_hd.mov\r\nFormat : MPEG-4\r\nFormat profile : QuickTime\r\nCodec ID : qt \r\nFile size : 1.76 GiB\r\nDuration : 24mn 18s\r\nOverall bit rate : 10.4 Mbps\r\nEncoded date : UTC 2013-01-06 05:35:47\r\nTagged date : UTC 2013-01-06 08:52:01\r\nWriting library : Apple QuickTime\r\nMedia/UUID : 06BA5780-C004-4C6A-B13E-85D425308925\r\n\r\nVideo\r\nID : 1\r\nFormat : AVC\r\nFormat/Info : Advanced Video Codec\r\nFormat profile : [email protected]\r\nFormat settings, CABAC : No\r\nFormat settings, ReFrames : 2 frames\r\nFormat settings, GOP : M=2, N=50\r\nCodec ID : avc1\r\nCodec ID/Info : Advanced Video Coding\r\nDuration : 24mn 18s\r\nBit rate : 10.2 Mbps\r\nWidth : 1 888 pixels\r\nOriginal width : 1 920 pixels\r\nHeight : 1 062 pixels\r\nOriginal height : 1 080 pixels\r\nDisplay aspect ratio : 16:9\r\nFrame rate mode : Constant\r\nFrame rate : 25.000 fps\r\nColor space : YUV\r\nChroma subsampling : 4:2:0\r\nBit depth : 8 bits\r\nScan type : Progressive\r\nBits/(Pixel*Frame) : 0.204\r\nStream size : 1.74 GiB (99%)\r\nLanguage : English\r\nEncoded date : UTC 2013-01-06 08:50:26\r\nTagged date : UTC 2013-01-06 08:52:01\r\nColor primaries : BT.709\r\nTransfer characteristics : BT.709\r\nMatrix coefficients : BT.709\r\n\r\nAudio\r\nID : 2\r\nFormat : AAC\r\nFormat/Info : Advanced Audio Codec\r\nFormat profile : LC\r\nCodec ID : 40\r\nDuration : 24mn 18s\r\nSource duration : 24mn 18s\r\nBit rate mode : Constant\r\nBit rate : 115 Kbps\r\nNominal bit rate : 128 Kbps\r\nChannel(s) : 2 channels\r\nChannel positions : Front: L R\r\nSampling rate : 44.1 KHz\r\nCompression mode : Lossy\r\nStream size : 20.0 MiB (1%)\r\nSource stream size : 20.0 MiB (1%)\r\nLanguage : English\r\nEncoded date : UTC 2013-01-06 08:50:26\r\nTagged date : UTC 2013-01-06 08:52:01\r\n\r\nOther\r\nID : 3\r\nType : Time code\r\nFormat : QuickTime TC\r\nDuration : 24mn 18s\r\nTime code of first frame : 00:00:00:00\r\nTime code settings : Striped\r\nLanguage : English\r\nEncoded date : UTC 2013-01-06 08:52:01\r\nTagged date : UTC 2013-01-06 08:52:01\r\n\r\n