Adult Hardcore XXX Sex Videos 1343

HD Teen Sex Tube 1346Young Sex Movies 1335

Posted in Amateur, HD Porn, Sex Movies, Teen | 162190 Views |


Rate this girl !!!




\r\n\r\n \r\n\r\nhttp://img101.imagetwist.com/i/05195/qg0c0sessh33.jpg\r\n\r\nLink(862 Mb||23:13||1280*720||WMV)



DOWNLOAD

Keep2share.cc - Uploaded.net - Openload.co - Rapidu.net


http://ul.to/4d2uq8v1
http://ryushare.com/xqqa71xmg6xw/MSNBTny.rar
http://keep2share.cc/file/78edd54781e13


Premium here:
uploaded.net
keep2share.cc
rapidu.net.cc


Teens related to Adult Hardcore XXX Sex Videos 1343


Young legal porn clips 3026 ryushare uploaded keep2share

Young legal porn clips 3026

HD Teens Sex Tube Videos XxX 224767 ryushare uploaded keep2share

HD Teens Sex Tube Videos XxX 224767

Big Birthday Party Fuck in Ibiza ryushare uploaded keep2share

Big Birthday Party Fuck in Ibiza

Two Teasing Tongues 10 – A ryushare uploaded keep2share

Two Teasing Tongues 10 – A

Adult Hardcore XXX Sex Videos 225032 ryushare uploaded keep2share

Adult Hardcore XXX Sex Videos 225032

Teen porn movies 2671 ryushare uploaded keep2share

Teen porn movies 2671

Young Virgin Pussy Teen Fuck Tube 4403 ryushare uploaded keep2share

Young Virgin Pussy Teen Fuck Tube 4403

pc free porn hd ryushare uploaded keep2share

pc free porn hd

Hot sex girls movies download 2920 ryushare uploaded keep2share

Hot sex girls movies download 2920

Teen Sex Porn Videos Free Nude Teens 5135 ryushare uploaded keep2share

Teen Sex Porn Videos Free Nude Teens 5135

Young Virgin Pussy Teen Fuck Tube 1905 ryushare uploaded keep2share

Young Virgin Pussy Teen Fuck Tube 1905

xxx hd first time sex pic ryushare uploaded keep2share

xxx hd first time sex pic

www hd xxxxxx bideos com 226676 ryushare uploaded keep2share

www hd xxxxxx bideos com 226676

wow girs com 226007 ryushare uploaded keep2share

wow girs com 226007

HD Porn Videos 4077 ryushare uploaded keep2share

HD Porn Videos 4077

Lola Taylor – Hardcore ryushare uploaded keep2share

Lola Taylor – Hardcore

Amarna  – PublicAgent ryushare uploaded keep2share

Amarna – PublicAgent

Marry – Time To Myself – Nubiles ryushare uploaded keep2share

Marry – Time To Myself – Nubiles

College Teen Sex 224724 ryushare uploaded keep2share

College Teen Sex 224724

Teens sex mania 225690 ryushare uploaded keep2share

Teens sex mania 225690

Teen Porn XXX Tube 1957 ryushare uploaded keep2share

Teen Porn XXX Tube 1957

YoungCourtesans.com Shakti – Special Sex Arrangement ryushare uploaded keep2share

YoungCourtesans.com Shakti – Special Sex Arrangement

Sara Luvv (Every Inch) ryushare uploaded keep2share

Sara Luvv (Every Inch)

teen mega world HQ HD pron hub sex video free download net 226482 ryushare uploaded keep2share

teen mega world HQ HD pron hub sex video free download net 226482

Teen Porn XXX Tube 1144 ryushare uploaded keep2share

Teen Porn XXX Tube 1144

Young XXX Tube Videos 3931 ryushare uploaded keep2share

Young XXX Tube Videos 3931

hq hd pron pussy free downlode 226077 ryushare uploaded keep2share

hq hd pron pussy free downlode 226077

Hot Teen Sex 1274 ryushare uploaded keep2share

Hot Teen Sex 1274

Girls do porn in HD 224797 ryushare uploaded keep2share

Girls do porn in HD 224797

Hot Teen Sex 2379 ryushare uploaded keep2share

Hot Teen Sex 2379

Tube xxx 224380 ryushare uploaded keep2share

Tube xxx 224380

Foxy Di – I’m all yours ryushare uploaded keep2share

Foxy Di – I’m all yours

HD Porn Teen Sex Videos 225821 ryushare uploaded keep2share

HD Porn Teen Sex Videos 225821

Teenage Fuck Clips 4003 ryushare uploaded keep2share

Teenage Fuck Clips 4003

8teen xxx pcHD com ryushare uploaded keep2share

8teen xxx pcHD com

Report broken links / Post a comment

You must be logged in to post a comment.



General\r\nComplete name : D:HD Teens Tube Download Porn Sex clips movies.xxxMSNBTnyMSNBTny.wmv\r\nFormat : Windows Media\r\nFile size : 862 MiB\r\nDuration : 23mn 13s\r\nOverall bit rate : 5 191 Kbps\r\nMaximum Overall bit rate : 5 149 Kbps\r\nEncoded date : UTC 2010-08-25 10:34:07.000\r\n\r\nVideo\r\nID : 1\r\nFormat : VC-1\r\nFormat profile : Main\r\nCodec ID : WMV3\r\nCodec ID/Info : Windows Media Video 9\r\nCodec ID/Hint : WMV3\r\nDescription of the codec : Windows Media Video 330690360 - 2-pass VBR\r\nDuration : 23mn 13s\r\nBit rate : 5 000 Kbps\r\nWidth : 1 280 pixels\r\nHeight : 720 pixels\r\nDisplay aspect ratio : 16:9\r\nFrame rate : 25.000 fps\r\nColor space : YUV\r\nChroma subsampling : 4:2:0\r\nBit depth : 8 bits\r\nScan type : Progressive\r\nCompression mode : Lossy\r\nBits/(Pixel*Frame) : 0.217\r\nStream size : 830 MiB (96%)\r\n\r\nAudio\r\nID : 2\r\nFormat : WMA\r\nFormat version : Version 2\r\nCodec ID : 161\r\nCodec ID/Info : Windows Media Audio\r\nDescription of the codec : Windows Media Audio 9 - 330690360 kbps, 330690360 kHz, stereo CBR\r\nDuration : 23mn 13s\r\nBit rate : 128 Kbps\r\nChannel(s) : 2 channels\r\nSampling rate : 44.1 KHz\r\nBit depth : 16 bits\r\nStream size : 21.3 MiB (2%)\r\n\r\n