Alexis Brill – Waltz With Me – Autumn

Jenny Simons – At The Right TimeSilvie Deluxe – Just A Minute

Posted in HD Porn, Pornstar, Teen | 7573 Views |


Rate this girl !!!




cover\r\n\r\n1920x1080p / MP4 / 906.46 MB\r\n

[SexArt.com] Alexis Brill – Waltz With Me – Autumn

\r\nSCREENSHOTS:\r\n\r\nscreens



DOWNLOAD

Keep2share.cc - Uploaded.net - Openload.co - Rapidu.net



http://k2s.cc/file/401fd06ad6f75/s4rt.14.07.13.4l3x1s.br1ll.w4ltz.w1th.m3.4utumn.mp4
http://ul.to/ev4hsjlx/s4rt.14.07.13.4l3x1s.br1ll.w4ltz.w1th.m3.4utumn.mp4



Premium here:
uploaded.net
keep2share.cc
rapidu.net.cc


Teens related to Alexis Brill – Waltz With Me – Autumn


valeria alexa xxx ryushare uploaded keep2share

valeria alexa xxx

Teen porn xxx 223828 ryushare uploaded keep2share

Teen porn xxx 223828

Tinny young pornstar fucked for all holes ryushare uploaded keep2share

Tinny young pornstar fucked for all holes

K Three Teasing Tongues 3 ryushare uploaded keep2share

K Three Teasing Tongues 3

Tracy Smile – Soldier ryushare uploaded keep2share

Tracy Smile – Soldier

Sweet Teen Porn – Teena Dolly ryushare uploaded keep2share

Sweet Teen Porn – Teena Dolly

Hd young videos 1695 ryushare uploaded keep2share

Hd young videos 1695

pc full hd video xxx download ryushare uploaded keep2share

pc full hd video xxx download

Teen porn xxx 224082 ryushare uploaded keep2share

Teen porn xxx 224082

First time Sexual Films 18 sex xxx 225815 ryushare uploaded keep2share

First time Sexual Films 18 sex xxx 225815

XXX/H/XX/ ryushare uploaded keep2share

XXX/H/XX/

Tube Young Sex Amateur Orgy 4891 ryushare uploaded keep2share

Tube Young Sex Amateur Orgy 4891

Teen Sex Videos Tube Movies 225092 ryushare uploaded keep2share

Teen Sex Videos Tube Movies 225092

Wow porn hd downloads 224435 ryushare uploaded keep2share

Wow porn hd downloads 224435

Angelica – Good Night Kiss ryushare uploaded keep2share

Angelica – Good Night Kiss

Free Porn Videos Xxx Movies Pussy Porn 225817 ryushare uploaded keep2share

Free Porn Videos Xxx Movies Pussy Porn 225817

Hardcore Sex Hub 1433 ryushare uploaded keep2share

Hardcore Sex Hub 1433

Xxxsexvidoa comhd ryushare uploaded keep2share

Xxxsexvidoa comhd

b f sex hot movie download ryushare uploaded keep2share

b f sex hot movie download

hd sex videos 1080p download for pc ryushare uploaded keep2share

hd sex videos 1080p download for pc

Young Virgin Pussy Teen Fuck Tube 3398 ryushare uploaded keep2share

Young Virgin Pussy Teen Fuck Tube 3398

Movies Young legal porn 4979 ryushare uploaded keep2share

Movies Young legal porn 4979

18OnlyGirls Nikita (Gina Devine) Here I Cum! ryushare uploaded keep2share

18OnlyGirls Nikita (Gina Devine) Here I Cum!

18 years girl xxx sex videos 2603 ryushare uploaded keep2share

18 years girl xxx sex videos 2603

Teens in Porno young porn videos and free teen sex 225010 ryushare uploaded keep2share

Teens in Porno young porn videos and free teen sex 225010

Anjelica – One Love… One Life ryushare uploaded keep2share

Anjelica – One Love… One Life

Hd young videos 2232 ryushare uploaded keep2share

Hd young videos 2232

Sex Teens porn movies 3971 ryushare uploaded keep2share

Sex Teens porn movies 3971

Small girl having hot group sex ryushare uploaded keep2share

Small girl having hot group sex

www first time hdsex com ryushare uploaded keep2share

www first time hdsex com

[WakeUpNFuck.com / PierreWoodman.com] Vyvan Hill (WUNF 202) [2016 г., Anal, DP, DPP, Gangbang, Foursome MMMF, Swallow, 720p] ryushare uploaded keep2share

[WakeUpNFuck.com / PierreWoodman.com] Vyvan Hill (WUNF 202) [2016 г., Anal, DP, DPP, Gangbang, Foursome MMMF, Swallow, 720p]

hd porn new breast 226190 ryushare uploaded keep2share

hd porn new breast 226190

hd low space porn video ryushare uploaded keep2share

hd low space porn video

white skin HD sex videos 226028 ryushare uploaded keep2share

white skin HD sex videos 226028

Wow Girls Porn Clips download 5439 ryushare uploaded keep2share

Wow Girls Porn Clips download 5439

Report broken links / Post a comment

You must be logged in to post a comment.



General\r\nComplete name : D:[SexArt.com] Alexis Brill – Waltz With Me – Autumn.mp4\r\nFormat : MPEG-4\r\nFormat profile : Base Media\r\nCodec ID : isom\r\nFile size : 906 MiB\r\nDuration : 15mn 34s\r\nOverall bit rate : 8 134 Kbps\r\nMovie name : Downloaded from RARBG.COM\r\nWriting application : Lavf55.37.102\r\nComment : Downloaded from RARBG.COM\r\n\r\nVideo\r\nID : 1\r\nFormat : AVC\r\nFormat/Info : Advanced Video Codec\r\nFormat profile : [email protected]\r\nFormat settings, CABAC : Yes\r\nFormat settings, ReFrames : 5 frames\r\nCodec ID : avc1\r\nCodec ID/Info : Advanced Video Coding\r\nDuration : 15mn 34s\r\nBit rate : 8 000 Kbps\r\nWidth : 1 920 pixels\r\nHeight : 1 080 pixels\r\nDisplay aspect ratio : 16:9\r\nFrame rate mode : Constant\r\nFrame rate : 23.976 fps\r\nColor space : YUV\r\nChroma subsampling : 4:2:0\r\nBit depth : 8 bits\r\nScan type : Progressive\r\nBits/(Pixel*Frame) : 0.161\r\nStream size : 892 MiB (98%)\r\nWriting library : x264 core 129 r2245 bc13772\r\nEncoding settings : cabac=1 / ref=5 / deblock=1:0:0 / analyse=0x3:0x113 / me=umh / subme=8 / psy=0 / mixed_ref=1 / me_range=16 / chroma_me=1 / trellis=1 / 8x8dct=1 / cqm=0 / deadzone=21,11 / fast_pskip=1 / chroma_qp_offset=0 / threads=36 / lookahead_threads=6 / sliced_threads=0 / nr=0 / decimate=1 / interlaced=0 / bluray_compat=0 / constrained_intra=0 / bframes=3 / b_pyramid=2 / b_adapt=2 / b_bias=0 / direct=3 / weightb=1 / open_gop=0 / weightp=2 / keyint=250 / keyint_min=25 / scenecut=40 / intra_refresh=0 / rc=2pass / mbtree=0 / bitrate=8000 / ratetol=1.0 / qcomp=0.60 / qpmin=10 / qpmax=51 / qpstep=4 / cplxblur=20.0 / qblur=0.5 / ip_ratio=1.40 / pb_ratio=1.30 / aq=1:1.00\r\nLanguage : English\r\n\r\nAudio\r\nID : 2\r\nFormat : AAC\r\nFormat/Info : Advanced Audio Codec\r\nFormat profile : LC\r\nCodec ID : 40\r\nDuration : 15mn 34s\r\nBit rate mode : Constant\r\nBit rate : 128 Kbps\r\nChannel(s) : 2 channels\r\nChannel positions : Front: L R\r\nSampling rate : 44.1 KHz\r\nCompression mode : Lossy\r\nStream size : 14.2 MiB (2%)\r\nLanguage : English\r\n[SexArt.com] Alexis Brill – Waltz With Me – Autumn\r\n