Alice March – Smooth as Silk

Teen 18 Porn XXX Clips Naked 2084Ariana Marie - Babysitter

Posted in HD Porn, Pornstar, Sex Movies, Teen | 8026 Views |


Rate this girl !!!




pic\r\n\r\nProduction year: 2013\r\nGenre: Straight, Gonzo\r\nDuration: 20 mins\r\nSaĭt: Babes.com\r\nActress: Alice March\r\nDescription: For Alice March, each erotic caress from her lover’s hand feels as sensual and pleasurable as having a section of silk rubbed against her silk. When he kisses her neck, or behind her ears, every hair on her body stands on end, and her nipples swell to tight, excited buds of pleasure. By the time Logan draws her panties to her ankles, Alice’s pussy is wet and ready to receive the full thrust of his manhood.\r\nVideo Quality: SiteRip\r\nVideo Format: MP4\r\nVideo codec: H.264/AVC\r\nAudio codec: AAC\r\nVideo: H.264/AVC, 4000 Kbps, 1280×720 (16:9), 29.970 fps\r\nAudio: AAC, 128 Kbps, 2 ch, 48 KHz\r\n\r\n[Babes.com] Alice March (Smooth as Silk / 20.10.13) [2013, Straight, Gonzo, 720p]\r\n\r\nloading\r\n\r\nloading\r\n\r\nloading\r\n\r\nloading\r\n\r\nloading



DOWNLOAD

Keep2share.cc - Uploaded.net - Openload.co - Rapidu.net


http://ryushare.com/qbxwsvdsjrky/b4b3s.bg.4lic3_m4rch.mp4


Premium here:
uploaded.net
keep2share.cc
rapidu.net.cc

Teens related to Alice March – Smooth as Silk


Beautiful small tits ryushare uploaded keep2share

Beautiful small tits

Lola Taylor & Franck Franco – Saturday Night ryushare uploaded keep2share

Lola Taylor & Franck Franco – Saturday Night

pc hd fucking clip 226607 ryushare uploaded keep2share

pc hd fucking clip 226607

Daisy, Karin ryushare uploaded keep2share

Daisy, Karin

teen sex hd movi dsunloal 226601 ryushare uploaded keep2share

teen sex hd movi dsunloal 226601

Teenage Fuck Clips 2643 ryushare uploaded keep2share

Teenage Fuck Clips 2643

www sex video pc porn 226242 ryushare uploaded keep2share

www sex video pc porn 226242

HD porn uploaded 4280 ryushare uploaded keep2share

HD porn uploaded 4280

Free Porn Videos Xxx Movies Pussy Porn 4959 ryushare uploaded keep2share

Free Porn Videos Xxx Movies Pussy Porn 4959

College Teen Sex 1921 ryushare uploaded keep2share

College Teen Sex 1921

Morgan Brooke – Very hot teen – Tease.Me ryushare uploaded keep2share

Morgan Brooke – Very hot teen – Tease.Me

www xxx hq sex 2014 com ryushare uploaded keep2share

www xxx hq sex 2014 com

HD Sex World Videos High Definition Free Porn 224629 ryushare uploaded keep2share

HD Sex World Videos High Definition Free Porn 224629

Hot Teen Sex 3611 ryushare uploaded keep2share

Hot Teen Sex 3611

Hot sex girls movies download 4277 ryushare uploaded keep2share

Hot sex girls movies download 4277

Kail Takes on Two Horny Studs for some fun ryushare uploaded keep2share

Kail Takes on Two Horny Studs for some fun

sex videos 18 226639 ryushare uploaded keep2share

sex videos 18 226639

Free Young Porn Videos XXX Teen Porn 3871 ryushare uploaded keep2share

Free Young Porn Videos XXX Teen Porn 3871

www hd sex vediocom ryushare uploaded keep2share

www hd sex vediocom

Porn teen hd downloads 225557 ryushare uploaded keep2share

Porn teen hd downloads 225557

Watch Teen Sex Videos HD 1226 ryushare uploaded keep2share

Watch Teen Sex Videos HD 1226

Small girls and boys porn 4002 ryushare uploaded keep2share

Small girls and boys porn 4002

Kleine Muschi will ficken – Desertigl ryushare uploaded keep2share

Kleine Muschi will ficken – Desertigl

Hardcore sex videos in the high definition quality 5010 ryushare uploaded keep2share

Hardcore sex videos in the high definition quality 5010

Vintage Collection – The Photographer ryushare uploaded keep2share

Vintage Collection – The Photographer

Free Porn Videos Xxx Movies Pussy Porn 224680 ryushare uploaded keep2share

Free Porn Videos Xxx Movies Pussy Porn 224680

Porno Big Tits young teens movies 3737 ryushare uploaded keep2share

Porno Big Tits young teens movies 3737

Tube xxx 224245 ryushare uploaded keep2share

Tube xxx 224245

Hd young videos 5293 ryushare uploaded keep2share

Hd young videos 5293

College Teen Sex 3556 ryushare uploaded keep2share

College Teen Sex 3556

Teen Sex Movies Young Porn Tube Vids 225957 ryushare uploaded keep2share

Teen Sex Movies Young Porn Tube Vids 225957

fast tiam movie hot xxx hd free 226715 ryushare uploaded keep2share

fast tiam movie hot xxx hd free 226715

Malena Morgan – I Don’t Sing In The Shower ryushare uploaded keep2share

Malena Morgan – I Don’t Sing In The Shower

HD Porn Teen Sex Videos 225317 ryushare uploaded keep2share

HD Porn Teen Sex Videos 225317

Nude Teens fucking hard 225614 ryushare uploaded keep2share

Nude Teens fucking hard 225614

Report broken links / Post a comment

You must be logged in to post a comment.



babes_bg_alice_march_sh111612_720p_4000\r\nGeneral\r\nComplete name : D:HD Teens Download Porn Sex clips movies Tubeb4b3s.bg.4lic3_m4rch.mp4\r\nFormat : MPEG-4\r\nFormat profile : Base Media\r\nCodec ID : isom\r\nFile size : 631 MiB\r\nDuration : 20mn 27s\r\nOverall bit rate : 4 311 Kbps\r\nWriting application : Lavf55.7.100\r\n\r\nVideo\r\nID : 1\r\nFormat : AVC\r\nFormat/Info : Advanced Video Codec\r\nFormat profile : [email protected]\r\nFormat settings, CABAC : Yes\r\nFormat settings, ReFrames : 5 frames\r\nCodec ID : avc1\r\nCodec ID/Info : Advanced Video Coding\r\nDuration : 20mn 27s\r\nBit rate : 4 000 Kbps\r\nWidth : 1 280 pixels\r\nHeight : 720 pixels\r\nDisplay aspect ratio : 16:9\r\nFrame rate mode : Constant\r\nFrame rate : 29.970 fps\r\nColor space : YUV\r\nChroma subsampling : 4:2:0\r\nBit depth : 8 bits\r\nScan type : Progressive\r\nBits/(Pixel*Frame) : 0.145\r\nStream size : 585 MiB (93%)\r\nWriting library : x264 core 133 r2334 a3ac64b\r\nEncoding settings : cabac=1 / ref=5 / deblock=1:0:0 / analyse=0x3:0x113 / me=umh / subme=8 / psy=1 / psy_rd=1.00:0.00 / mixed_ref=1 / me_range=16 / chroma_me=1 / trellis=1 / 8x8dct=1 / cqm=0 / deadzone=21,11 / fast_pskip=1 / chroma_qp_offset=-2 / threads=6 / lookahead_threads=1 / sliced_threads=0 / nr=0 / decimate=1 / interlaced=0 / bluray_compat=0 / constrained_intra=0 / bframes=3 / b_pyramid=2 / b_adapt=2 / b_bias=0 / direct=3 / weightb=1 / open_gop=0 / weightp=2 / keyint=60 / keyint_min=6 / scenecut=40 / intra_refresh=0 / rc_lookahead=50 / rc=abr / mbtree=1 / bitrate=4000 / ratetol=1.0 / qcomp=0.60 / qpmin=0 / qpmax=69 / qpstep=4 / ip_ratio=1.40 / aq=1:1.00\r\nLanguage : English\r\nTagged date : UTC 2013-09-12 01:30:49\r\n\r\nAudio\r\nID : 2\r\nFormat : AAC\r\nFormat/Info : Advanced Audio Codec\r\nFormat profile : LC\r\nCodec ID : 40\r\nDuration : 20mn 27s\r\nDuration_LastFrame : -9ms\r\nBit rate mode : Constant\r\nBit rate : 128 Kbps\r\nChannel(s) : 2 channels\r\nChannel positions : Front: L R\r\nSampling rate : 48.0 KHz\r\nCompression mode : Lossy\r\nStream size : 18.7 MiB (3%)\r\nLanguage : English\r\nTagged date : UTC 2013-09-12 01:30:49\r\n\r\n