Alyona, Klara & Paloma – Strap-on Adventure

Kail - My Favorite CountryLola Taylor - Hardcore

Posted in HD Porn, Lesbian, Pornstar, Sex Movies, Teen, Threesome | 16148 Views |


Rate this girl !!!




pic\r\n\r\n \r\n\r\nDuration: 00:16:42 \r\n Type HD video: 1080p\r\n Video Format: WMV\r\n Video codec: Windows Media\r\n Audio Codec: WMA\r\n Video: VC-1 (WMV3), 12.2 Mbps, 29.970 fps\r\n Audio: WMA (WMA2), 192 Kbps, 44.1 KHz\r\n\r\n \r\n\r\npic\r\n\r\nhttp://villa-italia.com.pl/porn/uploads/2013/12/55462e16b6b47b18c612439f807df657.jpg\r\n\r\nhttp://villa-italia.com.pl/porn/uploads/2013/12/34ebc71c086933322542bd895a27e1ec.jpg



DOWNLOAD

Keep2share.cc - Uploaded.net - Openload.co - Rapidu.net


http://fileom.com/ia478lchhit2/4lyon4.Kl4r4.P4lom4.Str4pon.4dventure.wmv.html
http://ul.to/i4y2xhsj/4lyon4.Kl4r4.P4lom4.Str4pon.4dventure.wmv
http://k2s.cc/file/55ccf2bbb7289/4lyon4.Kl4r4.P4lom4.Str4pon.4dventure.wmv
http://ul.to/pu94822o



Premium here:
uploaded.net
keep2share.cc
rapidu.net.cc

Teens related to Alyona, Klara & Paloma – Strap-on Adventure


Grace and Kimmie – Friend of a Friend ryushare uploaded keep2share

Grace and Kimmie – Friend of a Friend

www xxxx 18teen grils ryushare uploaded keep2share

www xxxx 18teen grils

HQ Sex Movies Download 4625 ryushare uploaded keep2share

HQ Sex Movies Download 4625

www HD sex videoxxx com ryushare uploaded keep2share

www HD sex videoxxx com

Wow Girls Porn Clips download 224386 ryushare uploaded keep2share

Wow Girls Porn Clips download 224386

HD Porn Teen Sex Videos 2853 ryushare uploaded keep2share

HD Porn Teen Sex Videos 2853

Girls do porn in HD 225551 ryushare uploaded keep2share

Girls do porn in HD 225551

High Definition Movies on HD 225408 ryushare uploaded keep2share

High Definition Movies on HD 225408

Young xxx 224931 ryushare uploaded keep2share

Young xxx 224931

Porno movies young teens lesbian 224059 ryushare uploaded keep2share

Porno movies young teens lesbian 224059

[WowPorn.com] Feona – Humans Needs. R E D ryushare uploaded keep2share

[WowPorn.com] Feona – Humans Needs. R E D

Audrina Grace – Better Than Breakfast In Bed ryushare uploaded keep2share

Audrina Grace – Better Than Breakfast In Bed

Free Young Porn Videos XXX Teen Porn 3871 ryushare uploaded keep2share

Free Young Porn Videos XXX Teen Porn 3871

Free Porn Videos Xxx Movies Pussy Porn 4959 ryushare uploaded keep2share

Free Porn Videos Xxx Movies Pussy Porn 4959

Teen Sex Movies Young Porn Tube Vids 5668 ryushare uploaded keep2share

Teen Sex Movies Young Porn Tube Vids 5668

Hardcore Sex Hub 225234 ryushare uploaded keep2share

Hardcore Sex Hub 225234

Episode 240 – 20 years old GirlsDoPorn.com ryushare uploaded keep2share

Episode 240 – 20 years old GirlsDoPorn.com

HD Teen Sex Tube 2585 ryushare uploaded keep2share

HD Teen Sex Tube 2585

Yours Forever – Lisa ryushare uploaded keep2share

Yours Forever – Lisa

Teen porn movies 2668 ryushare uploaded keep2share

Teen porn movies 2668

sex hd romance 226550 ryushare uploaded keep2share

sex hd romance 226550

Free High Quality Sex Movies 3471 ryushare uploaded keep2share

Free High Quality Sex Movies 3471

Teen xxx sex hd 224286 ryushare uploaded keep2share

Teen xxx sex hd 224286

Wowporn Barbara Sweet & Beata HD ryushare uploaded keep2share

Wowporn Barbara Sweet & Beata HD

Hardcore Sex Hub 224214 ryushare uploaded keep2share

Hardcore Sex Hub 224214

Teen porn xxx 225534 ryushare uploaded keep2share

Teen porn xxx 225534

Teen Sex Videos Tube Movies 225390 ryushare uploaded keep2share

Teen Sex Videos Tube Movies 225390

Teen Sex Videos Tube Movies 225092 ryushare uploaded keep2share

Teen Sex Videos Tube Movies 225092

Tube Young Sex 3798 ryushare uploaded keep2share

Tube Young Sex 3798

WoodmanCastingX Viola Bailey Hard mega co nz/|depositfiles com/files|uploaded to|ul to/ 226656 ryushare uploaded keep2share

WoodmanCastingX Viola Bailey Hard mega co nz/|depositfiles com/files|uploaded to|ul to/ 226656

Dreams-HD.com Nikka ryushare uploaded keep2share

Dreams-HD.com Nikka

www fist tam gralla xxx video com ryushare uploaded keep2share

www fist tam gralla xxx video com

HD Porn Video 1239 ryushare uploaded keep2share

HD Porn Video 1239

Fresh Teen Videos 2970 ryushare uploaded keep2share

Fresh Teen Videos 2970

Teenies Videos – Teen Porn, Teen Sex, XXX Free Videos 2114 ryushare uploaded keep2share

Teenies Videos – Teen Porn, Teen Sex, XXX Free Videos 2114

Report broken links / Post a comment

You must be logged in to post a comment.



Alyona, Klara & Paloma - Strap-on Adventure\r\nGeneral\r\nComplete name : D:Alyona, Klara & Paloma - Strap-on Adventure.wmv\r\nFormat : Windows Media\r\nFile size : 1.45 GiB\r\nDuration : 16mn 42s\r\nOverall bit rate mode : Variable\r\nOverall bit rate : 12.4 Mbps\r\nMaximum Overall bit rate : 18.7 Mbps\r\nEncoded date : UTC 2012-07-26 01:04:14.570\r\nSfOriginalFPS : 299700\r\n\r\nVideo\r\nID : 2\r\nFormat : VC-1\r\nFormat profile : [email protected]\r\nCodec ID : WMV3\r\nCodec ID/Info : Windows Media Video 9\r\nCodec ID/Hint : WMV3\r\nDescription of the codec : Windows Media Video 9 - Professional\r\nDuration : 16mn 42s\r\nBit rate mode : Variable\r\nBit rate : 12.2 Mbps\r\nWidth : 1 920 pixels\r\nHeight : 1 080 pixels\r\nDisplay aspect ratio : 16:9\r\nFrame rate : 29.970 fps\r\nColor space : YUV\r\nChroma subsampling : 4:2:0\r\nBit depth : 8 bits\r\nScan type : Progressive\r\nCompression mode : Lossy\r\nBits/(Pixel*Frame) : 0.196\r\nStream size : 1.42 GiB (98%)\r\nLanguage : Russian\r\n\r\nAudio\r\nID : 1\r\nFormat : WMA\r\nFormat version : Version 2\r\nCodec ID : 161\r\nCodec ID/Info : Windows Media Audio\r\nDescription of the codec : Windows Media Audio 9.2 - 192 kbps, 44 kHz, stereo (A/V) 1-pass CBR\r\nDuration : 16mn 42s\r\nBit rate mode : Constant\r\nBit rate : 192 Kbps\r\nChannel count : 2 channels\r\nSampling rate : 44.1 KHz\r\nBit depth : 16 bits\r\nStream size : 23.0 MiB (2%)\r\nLanguage : Russian\r\n\r\n