Ariana Marie – Babysitter

Alice March - Smooth as SilkAdele Sunshine - George on Adele

Posted in HD Porn, Pornstar, Sex Movies, Teen | 14996 Views |


Rate this girl !!!




Ariana Marie – Babysitter\r\n\r\npic\r\n\r\n[FantasyHD.com] Ariana Marie – Babysitter (14.10.2013 g) [All Sex, Hardcore, Teen] [1080p]\r\n\r\nVideo Format: wmv\r\nDuration: 00:29:04\r\nVideo: WMV3; 1920×1080 (16:9); 9000 Kbps; 23,976 fps; 0,181 bpp\r\nAudio: WMA2; 128 Kbps; CBR; 2 ch; 16 bit\r\n\r\n\r\n\r\n\r\n\r\nhttp://i58.fastpic.ru/big/2013/1014/bc/81fb3746e701bffd6631d8d42c05fdbc.jpg



DOWNLOAD

Keep2share.cc - Uploaded.net - Openload.co - Rapidu.net


http://ryushare.com/mi6ubn1jrgec/F.4ri4n4.M.B4by.wmv
http://ul.to/cezz7m2p/F.4ri4n4.M.B4by.wmv


Premium here:
uploaded.net
keep2share.cc
rapidu.net.cc

Teens related to Ariana Marie – Babysitter


Rocco Orgy ryushare uploaded keep2share

Rocco Orgy

Teen Sex Movies Young Porn Tube Vids 2930 ryushare uploaded keep2share

Teen Sex Movies Young Porn Tube Vids 2930

Аvа Spаrххх & Veronica Radke – Working The Earth ryushare uploaded keep2share

Аvа Spаrххх & Veronica Radke – Working The Earth

Wow porn hd downloads 224035 ryushare uploaded keep2share

Wow porn hd downloads 224035

Sweet Teen Porn – Young Porn Videos 225089 ryushare uploaded keep2share

Sweet Teen Porn – Young Porn Videos 225089

Hot Teen Sex HD videos 2678 ryushare uploaded keep2share

Hot Teen Sex HD videos 2678

Young Virgin Pussy Teen Fuck Tube 2315 ryushare uploaded keep2share

Young Virgin Pussy Teen Fuck Tube 2315

Defloration.com Erika Kleptovich – Losing of Virginity ryushare uploaded keep2share

Defloration.com Erika Kleptovich – Losing of Virginity

Teen 18 Porn XXX Clips Naked 224758 ryushare uploaded keep2share

Teen 18 Porn XXX Clips Naked 224758

hd china teen sex video download ryushare uploaded keep2share

hd china teen sex video download

www full sex xxx move com ryushare uploaded keep2share

www full sex xxx move com

Young XXX Tube Videos 3230 ryushare uploaded keep2share

Young XXX Tube Videos 3230

HD Teens Sex Tube Videos XxX 225747 ryushare uploaded keep2share

HD Teens Sex Tube Videos XxX 225747

HD Porn Videos 1960 ryushare uploaded keep2share

HD Porn Videos 1960

bf 1080p xxxx sex xxx hd bf 226698 ryushare uploaded keep2share

bf 1080p xxxx sex xxx hd bf 226698

Hd quality – Teen sex video 5249 ryushare uploaded keep2share

Hd quality – Teen sex video 5249

Free Porn Videos Xxx Movies Pussy Porn 5286 ryushare uploaded keep2share

Free Porn Videos Xxx Movies Pussy Porn 5286

8 Teen XXX – Teen Sex 4220 ryushare uploaded keep2share

8 Teen XXX – Teen Sex 4220

sex xxx hd new 98 226668 ryushare uploaded keep2share

sex xxx hd new 98 226668

hd sex videos 1080p download for pc ryushare uploaded keep2share

hd sex videos 1080p download for pc

Hot hd teen sex videos 4668 ryushare uploaded keep2share

Hot hd teen sex videos 4668

ClubSeventeen.com home alone teens 02 06 ryushare uploaded keep2share

ClubSeventeen.com home alone teens 02 06

www scool xxx com 226417 ryushare uploaded keep2share

www scool xxx com 226417

xxxxsexvideo 226647 ryushare uploaded keep2share

xxxxsexvideo 226647

Alexis seduced by neighbour ryushare uploaded keep2share

Alexis seduced by neighbour

Valentina Nappi – La Dolce Vita ryushare uploaded keep2share

Valentina Nappi – La Dolce Vita

Two Teasing Tongues 10 – B ryushare uploaded keep2share

Two Teasing Tongues 10 – B

Tracy Smile ryushare uploaded keep2share

Tracy Smile

Girls sex art hd teens videos 225510 ryushare uploaded keep2share

Girls sex art hd teens videos 225510

Wow girls porn teens 2612 ryushare uploaded keep2share

Wow girls porn teens 2612

WowGirls.com Vanda – The pleasure Is All Mine ryushare uploaded keep2share

WowGirls.com Vanda – The pleasure Is All Mine

High Definition Movies on HD Teen Porn XXX Tube 6225 ryushare uploaded keep2share

High Definition Movies on HD Teen Porn XXX Tube 6225

ClubSeventeen.com SiteRip – Part 3 ryushare uploaded keep2share

ClubSeventeen.com SiteRip – Part 3

Nude Teens fucking hard 225375 ryushare uploaded keep2share

Nude Teens fucking hard 225375

YoungLegalPorn Bella Baby And Carla Cox Advanced Bonking ryushare uploaded keep2share

YoungLegalPorn Bella Baby And Carla Cox Advanced Bonking

Report broken links / Post a comment

You must be logged in to post a comment.



FantasyHD - Ariana Marie - Babysitter -1080p\r\nGeneral\r\nComplete name : D:HD Teens Download Porn Sex clips movies TubeFantasyHD - Ariana Marie - Babysitter -1080p.wmv\r\nFormat : Windows Media\r\nFile size : 1.83 GiB\r\nDuration : 29mn 4s\r\nOverall bit rate mode : Constant\r\nOverall bit rate : 9 008 Kbps\r\nMaximum Overall bit rate : 9 199 Kbps\r\nEncoded date : UTC 2013-10-10 20:52:10.700\r\n\r\nVideo\r\nID : 2\r\nFormat : VC-1\r\nFormat profile : [email protected]\r\nCodec ID : WMV3\r\nCodec ID/Info : Windows Media Video 9\r\nCodec ID/Hint : WMV3\r\nDescription of the codec : Windows Media Video 9 - Professional\r\nDuration : 29mn 4s\r\nBit rate mode : Constant\r\nBit rate : 9 000 Kbps\r\nWidth : 1 920 pixels\r\nHeight : 1 080 pixels\r\nDisplay aspect ratio : 16:9\r\nFrame rate : 23.976 fps\r\nNominal frame rate : 29.970 fps\r\nColor space : YUV\r\nChroma subsampling : 4:2:0\r\nBit depth : 8 bits\r\nScan type : Progressive\r\nCompression mode : Lossy\r\nBits/(Pixel*Frame) : 0.181\r\nStream size : 1.83 GiB (100%)\r\n\r\nAudio\r\nID : 1\r\nFormat : WMA\r\nFormat version : Version 2\r\nCodec ID : 161\r\nCodec ID/Info : Windows Media Audio\r\nDescription of the codec : Windows Media Audio 9.2 - 128 kbps, 44 kHz, stereo 2-pass CBR\r\nDuration : 29mn 4s\r\nBit rate mode : Constant\r\nBit rate : 128 Kbps\r\nChannel(s) : 2 channels\r\nSampling rate : 44.1 KHz\r\nBit depth : 16 bits\r\nStream size : 26.6 MiB (1%)\r\n\r\n