Ariana Marie, Holly Michaels (Rub You The Right Way / 04.11.13)

Teen sex xxx hd 4287Babes Giselle Leon 1080p

Posted in HD Porn, Sex Movies, Threesome | 14996 Views |


Rate this girl !!!




[NubileFilms.com] Ariana Marie, Holly Michaels (Rub You The Right Way / 04.11.13) [2013 г., Brunette, Girl-Girl-Boy, Hardcore, Lesbian, Long hair, Massage, Shaved Pussy, 720p]\r\n\r\nAriana Marie, Holly Michaels (Rub You The Right Way / 04.11.13)\r\n\r\nAriana Marie, Holly Michaels (Rub You The Right Way / 04.11.13)\r\n\r\nAriana Marie, Holly Michaels (Rub You The Right Way / 04.11.13)\r\n\r\nAriana Marie, Holly Michaels (Rub You The Right Way / 04.11.13)\r\n\r\nActress name: Ariana Marie, Holly Michaels\r\nName movie: Rub You The Right Way\r\nSubsites and site: NubileFilms.com\r\nProduction year: 2013\r\nGenre: Brunette, Girl-Girl-Boy, Hardcore, Lesbian, Long hair, Massage, Shaved Pussy\r\nSize: 1119022072 bytes (1.04 GiB), duration: 00:35:06, avg.bitrate: 4251 kb/s\r\nAudio: aac, 44100 Hz, stereo, s16, 151 kb/s (eng)\r\nVideo: h264, yuv420p, 1280×720, 4091 kb/s, 23.98 fps(r) (eng)\r\n\r\n



DOWNLOAD

Keep2share.cc - Uploaded.net - Openload.co - Rapidu.net


http://ryushare.com/264a2b90a74c/Rvb.the.r1ght.nvb1f1lm.part1.rar
http://ryushare.com/256156ebaa04/Rvb.the.r1ght.nvb1f1lm.part2.rar
http://keep2share.cc/file/527a9eacae25c
http://keep2share.cc/file/527a9e77ea978
http://turbobit.net/8j9m66uogfzq.html
http://turbobit.net/ty390iqhtd4l.html
http://ul.to/pugclrkg
http://ul.to/cncypkwm


Premium here:
uploaded.net
keep2share.cc
rapidu.net.cc

Teens related to Ariana Marie, Holly Michaels (Rub You The Right Way / 04.11.13)


Teen Tits Tube, Young Girls Porn Videos 5028 ryushare uploaded keep2share

Teen Tits Tube, Young Girls Porn Videos 5028

xxx hq sexy vedioes 226528 ryushare uploaded keep2share

xxx hq sexy vedioes 226528

anysex free video com ryushare uploaded keep2share

anysex free video com

HD Porn Teen Sex Videos 4043 ryushare uploaded keep2share

HD Porn Teen Sex Videos 4043

Teen Porn XXX Tube 225246 ryushare uploaded keep2share

Teen Porn XXX Tube 225246

Download young porn sex 224632 ryushare uploaded keep2share

Download young porn sex 224632

www xvedeo comhd ryushare uploaded keep2share

www xvedeo comhd

Taissia A – Bed of Roses ryushare uploaded keep2share

Taissia A – Bed of Roses

Teen 18 Porn XXX Clips Naked 3189 ryushare uploaded keep2share

Teen 18 Porn XXX Clips Naked 3189

fucking pix hd download ryushare uploaded keep2share

fucking pix hd download

download teen hd porn video small size ryushare uploaded keep2share

download teen hd porn video small size

Porno lesbian young teens movies 4570 ryushare uploaded keep2share

Porno lesbian young teens movies 4570

pon ster xxxxxx ryushare uploaded keep2share

pon ster xxxxxx

Teens in Porno young porn videos and free teen sex 2151 ryushare uploaded keep2share

Teens in Porno young porn videos and free teen sex 2151

Anjelica – My Inner Feelings ryushare uploaded keep2share

Anjelica – My Inner Feelings

Teen porn movies 1676 ryushare uploaded keep2share

Teen porn movies 1676

Passion-HD Lily Ariana 1080 ryushare uploaded keep2share

Passion-HD Lily Ariana 1080

Wow porn tube movies 224325 ryushare uploaded keep2share

Wow porn tube movies 224325

www yes video xxx com 226468 ryushare uploaded keep2share

www yes video xxx com 226468

Teens in Porno young porn videos and free teen sex 225592 ryushare uploaded keep2share

Teens in Porno young porn videos and free teen sex 225592

College Teen Sex 3556 ryushare uploaded keep2share

College Teen Sex 3556

Good Teen Tube Sexy Young Naked Girls Movies 1383 ryushare uploaded keep2share

Good Teen Tube Sexy Young Naked Girls Movies 1383

Teen porn movies 224453 ryushare uploaded keep2share

Teen porn movies 224453

Teen porn movies 1607 ryushare uploaded keep2share

Teen porn movies 1607

hd porn movi downlod 226138 ryushare uploaded keep2share

hd porn movi downlod 226138

Adult Hardcore XXX Sex Videos 4965 ryushare uploaded keep2share

Adult Hardcore XXX Sex Videos 4965

HD Teen Sex Tube 3628 ryushare uploaded keep2share

HD Teen Sex Tube 3628

Young Sex Movies 4563 ryushare uploaded keep2share

Young Sex Movies 4563

Wow porn tube movies 5353 ryushare uploaded keep2share

Wow porn tube movies 5353

Hot Teen Sex HD videos 1748 ryushare uploaded keep2share

Hot Teen Sex HD videos 1748

August – August Fantasy ryushare uploaded keep2share

August – August Fantasy

Teen Sex Movies 1210 ryushare uploaded keep2share

Teen Sex Movies 1210

hb sex yes com ryushare uploaded keep2share

hb sex yes com

Hot Teen Sex 225798 ryushare uploaded keep2share

Hot Teen Sex 225798

Wow porn hd downloads 224563 ryushare uploaded keep2share

Wow porn hd downloads 224563

Report broken links / Post a comment

You must be logged in to post a comment.



General\r\nComplete name : H:HD TEENS PORNDOWNLOADRYUSHAREUPLOADEDKEEP2SHAREnubilefilms_rub_you_the_right_way_1280.mp4\r\nFormat : MPEG-4\r\nFormat profile : Base Media\r\nCodec ID : isom\r\nFile size : 1.04 GiB\r\nDuration : 35mn 6s\r\nOverall bit rate mode : Variable\r\nOverall bit rate : 4 250 Kbps\r\nWriting application : Lavf54.25.104\r\nComment : Download from HDteenmania.com\r\n\r\nVideo\r\nID : 1\r\nFormat : AVC\r\nFormat/Info : Advanced Video Codec\r\nFormat profile : [email protected]\r\nFormat settings, CABAC : Yes\r\nFormat settings, ReFrames : 4 frames\r\nCodec ID : avc1\r\nCodec ID/Info : Advanced Video Coding\r\nDuration : 35mn 6s\r\nBit rate : 4 092 Kbps\r\nWidth : 1 280 pixels\r\nHeight : 720 pixels\r\nDisplay aspect ratio : 16:9\r\nFrame rate mode : Constant\r\nFrame rate : 23.976 fps\r\nColor space : YUV\r\nChroma subsampling : 4:2:0\r\nBit depth : 8 bits\r\nScan type : Progressive\r\nBits/(Pixel*Frame) : 0.185\r\nStream size : 1.00 GiB (96%)\r\nWriting library : x264 core 125 r2208 d9d2288\r\nEncoding settings : cabac=1 / ref=2 / deblock=1:-1:-1 / analyse=0x1:0x111 / me=umh / subme=8 / psy=1 / psy_rd=1.00:0.15 / mixed_ref=1 / me_range=16 / chroma_me=1 / trellis=1 / 8x8dct=0 / cqm=0 / deadzone=21,11 / fast_pskip=1 / chroma_qp_offset=-3 / threads=2 / lookahead_threads=1 / sliced_threads=0 / nr=0 / decimate=1 / interlaced=0 / bluray_compat=0 / constrained_intra=0 / bframes=3 / b_pyramid=2 / b_adapt=2 / b_bias=0 / direct=3 / weightb=1 / open_gop=0 / weightp=0 / keyint=250 / keyint_min=23 / scenecut=40 / intra_refresh=0 / rc_lookahead=50 / rc=crf / mbtree=1 / crf=17.0 / qcomp=0.60 / qpmin=0 / qpmax=69 / qpstep=4 / ip_ratio=1.40 / aq=1:1.00\r\nLanguage : English\r\n\r\nAudio\r\nID : 2\r\nFormat : AAC\r\nFormat/Info : Advanced Audio Codec\r\nFormat profile : LC\r\nCodec ID : 40\r\nDuration : 35mn 6s\r\nDuration_LastFrame : -15ms\r\nBit rate mode : Variable\r\nBit rate : 152 Kbps\r\nMaximum bit rate : 196 Kbps\r\nChannel(s) : 2 channels\r\nChannel positions : Front: L R\r\nSampling rate : 44.1 KHz\r\nCompression mode : Lossy\r\nDelay relative to video : 83ms\r\nStream size : 38.2 MiB (4%)\r\nLanguage : English\r\n\r\n