Ariana Marie – Post Workout Sex

Mega - Time To Fuck - Episode 432Molly – Deep and passionate anal

Posted in HD Porn, Pornstar, Sex Movies, Teen | 17615 Views |


Rate this girl !!!




[18YearsOld.com] Ariana Marie – Post Workout Sex

\r\n

cover

\r\n

1920x1080p / MP4 / 1006.58 MB

\r\n

SCREENSHOTS:

\r\n

screens

\r\n



DOWNLOAD

Keep2share.cc - Uploaded.net - Openload.co - Rapidu.net


http://ul.to/4sovqytb/1.8..yo.ari.ana.ma.rie.post.wor.kout.se.x.08.08.14_10.80.mp4
http://fileom.com/yk8etxmo1gkv/1.8..yo.ari.ana.ma.rie.post.wor.kout.se.x.08.08.14_10.80.mp4.html
http://k2s.cc/file/6997ff22fcf7b/1.8..yo.ari.ana.ma.rie.post.wor.kout.se.x.08.08.14_10.80.mp4


Premium here:
uploaded.net
keep2share.cc
rapidu.net.cc


Teens related to Ariana Marie – Post Workout Sex


Fucking girl in stockings ryushare uploaded keep2share

Fucking girl in stockings

teen porn at pinkworld ryushare uploaded keep2share

teen porn at pinkworld

18 years girl xxx sex videos) 2758 ryushare uploaded keep2share

18 years girl xxx sex videos) 2758

Jenna Sativa Rebecca-Volpetti-GANGBANG ryushare uploaded keep2share

Jenna Sativa Rebecca-Volpetti-GANGBANG

Wow girls downloads hd 224557 ryushare uploaded keep2share

Wow girls downloads hd 224557

Free High Quality Sex Movies 2128 ryushare uploaded keep2share

Free High Quality Sex Movies 2128

Kiara Lord, Vanda Lust – Walk on the wild side ryushare uploaded keep2share

Kiara Lord, Vanda Lust – Walk on the wild side

hd low space porn video ryushare uploaded keep2share

hd low space porn video

Hot Teen Sex HD videos 224860 ryushare uploaded keep2share

Hot Teen Sex HD videos 224860

First time Sexual Films 18 sex xxx 225737 ryushare uploaded keep2share

First time Sexual Films 18 sex xxx 225737

HD Sex World Videos High Definition Free Porn 1501 ryushare uploaded keep2share

HD Sex World Videos High Definition Free Porn 1501

sex com hd9in 226365 ryushare uploaded keep2share

sex com hd9in 226365

Download young porn sex 224632 ryushare uploaded keep2share

Download young porn sex 224632

Girls do porn in HD 224797 ryushare uploaded keep2share

Girls do porn in HD 224797

Teen xxx sex hd 5239 ryushare uploaded keep2share

Teen xxx sex hd 5239

[Nubiles.net] Gina Valentina (Petite Stunner / 29.11.2016) [Solo, Mastrubation, 1080p] ryushare uploaded keep2share

[Nubiles.net] Gina Valentina (Petite Stunner / 29.11.2016) [Solo, Mastrubation, 1080p]

Teen Porn XXX Tube 225056 ryushare uploaded keep2share

Teen Porn XXX Tube 225056

xvideo teen mania 226536 ryushare uploaded keep2share

xvideo teen mania 226536

Uploaded net porn 2517 ryushare uploaded keep2share

Uploaded net porn 2517

89 hd sex videos in 226208 ryushare uploaded keep2share

89 hd sex videos in 226208

nubilefilms com/youporn december 2014 226042 ryushare uploaded keep2share

nubilefilms com/youporn december 2014 226042

TeenLustHD com ryushare uploaded keep2share

TeenLustHD com

video9 inx ryushare uploaded keep2share

video9 inx

Fucking outdoors ryushare uploaded keep2share

Fucking outdoors

Teens in Porno young porn videos and free teen sex 5211 ryushare uploaded keep2share

Teens in Porno young porn videos and free teen sex 5211

HD Teen Sex Tube 4748 ryushare uploaded keep2share

HD Teen Sex Tube 4748

Hardcore sex videos in the high definition quality 223782 ryushare uploaded keep2share

Hardcore sex videos in the high definition quality 223782

Free Young Porn Videos XXX Teen Porn 223975 ryushare uploaded keep2share

Free Young Porn Videos XXX Teen Porn 223975

Teen porn xxx 225802 ryushare uploaded keep2share

Teen porn xxx 225802

www defloration hqvideo com 226313 ryushare uploaded keep2share

www defloration hqvideo com 226313

vergen xxx hd ryushare uploaded keep2share

vergen xxx hd

www sex videosdowanload com 226082 ryushare uploaded keep2share

www sex videosdowanload com 226082

Connie Stay by my Woman – YoungLegalPorn ryushare uploaded keep2share

Connie Stay by my Woman – YoungLegalPorn

klixen cipriana and cindy 226252 ryushare uploaded keep2share

klixen cipriana and cindy 226252

Young teens tube hot girls free porn video 5527 ryushare uploaded keep2share

Young teens tube hot girls free porn video 5527

Report broken links / Post a comment

You must be logged in to post a comment.



General\r\nComplete name : D:[18YearsOld.com] Ariana Marie – Post Workout Sex.mp4\r\nFormat : MPEG-4\r\nFormat profile : Base Media\r\nCodec ID : isom\r\nFile size : 1 007 MiB\r\nDuration : 18mn 54s\r\nOverall bit rate mode : Variable\r\nOverall bit rate : 7 444 Kbps\r\nWriting application : Lavf55.44.100\r\n\r\nVideo\r\nID : 1\r\nFormat : AVC\r\nFormat/Info : Advanced Video Codec\r\nFormat profile : [email protected]\r\nFormat settings, CABAC : No\r\nFormat settings, ReFrames : 2 frames\r\nCodec ID : avc1\r\nCodec ID/Info : Advanced Video Coding\r\nDuration : 18mn 54s\r\nBit rate : 7 338 Kbps\r\nWidth : 1 920 pixels\r\nHeight : 1 080 pixels\r\nDisplay aspect ratio : 16:9\r\nFrame rate mode : Constant\r\nFrame rate : 23.976 fps\r\nColor space : YUV\r\nChroma subsampling : 4:2:0\r\nBit depth : 8 bits\r\nScan type : Progressive\r\nBits/(Pixel*Frame) : 0.148\r\nStream size : 992 MiB (99%)\r\nWriting library : x264 core 142 r2431 a5831aa\r\nEncoding settings : cabac=0 / ref=2 / deblock=1:0:0 / analyse=0x1:0x111 / me=hex / subme=6 / psy=1 / psy_rd=1.00:0.00 / mixed_ref=1 / me_range=16 / chroma_me=1 / trellis=1 / 8x8dct=0 / cqm=0 / deadzone=21,11 / fast_pskip=1 / chroma_qp_offset=-2 / threads=2 / lookahead_threads=1 / sliced_threads=0 / nr=0 / decimate=1 / interlaced=0 / bluray_compat=0 / constrained_intra=0 / bframes=0 / weightp=0 / keyint=250 / keyint_min=23 / scenecut=40 / intra_refresh=0 / rc_lookahead=30 / rc=crf / mbtree=1 / crf=18.0 / qcomp=0.60 / qpmin=0 / qpmax=69 / qpstep=4 / ip_ratio=1.40 / aq=1:1.00\r\nLanguage : English\r\n\r\nAudio\r\nID : 2\r\nFormat : AAC\r\nFormat/Info : Advanced Audio Codec\r\nFormat profile : LC\r\nCodec ID : 40\r\nDuration : 18mn 54s\r\nBit rate mode : Variable\r\nBit rate : 101 Kbps\r\nMaximum bit rate : 128 Kbps\r\nChannel(s) : 2 channels\r\nChannel positions : Front: L R\r\nSampling rate : 48.0 KHz\r\nCompression mode : Lossy\r\nStream size : 13.7 MiB (1%)\r\nLanguage : English\r\n\r\n