Beautiful model

Brunette bonkTracy Smile

Posted in HD Porn, Sex Movies, Teen | 5882 Views |


Rate this girl !!!




\r\n\r\n2.jpeg\r\n\r\nBeautiful model\r\n\r\n Link(675 Mb||20:38||1920*1080||MP4) \r\n\r\n 



DOWNLOAD

Keep2share.cc - Uploaded.net - Openload.co - Rapidu.net


http://ryushare.com/55955d175511/TSBGRMChl.rar
http://keep2share.cc/file/52ddcfce2e5dd
http://ul.to/pwaf1h6p


Premium here:
uploaded.net
keep2share.cc
rapidu.net.cc


Teens related to Beautiful model


www 18porn com/hot hd video 226736 ryushare uploaded keep2share

www 18porn com/hot hd video 226736

Hot Teen Sex 224413 ryushare uploaded keep2share

Hot Teen Sex 224413

1280*720hd sex vídeo com ryushare uploaded keep2share

1280*720hd sex vídeo com

Adele Sunshine – George on Adele ryushare uploaded keep2share

Adele Sunshine – George on Adele

Teen porn movies 1607 ryushare uploaded keep2share

Teen porn movies 1607

HD Sex World Videos High Definition Free Porn 2359 ryushare uploaded keep2share

HD Sex World Videos High Definition Free Porn 2359

Nude Teens fucking hard 1617 ryushare uploaded keep2share

Nude Teens fucking hard 1617

Teen Sex Movies 2658 ryushare uploaded keep2share

Teen Sex Movies 2658

Porn HD Sex HD Teen Sex 224962 ryushare uploaded keep2share

Porn HD Sex HD Teen Sex 224962

HD Porn Video 1701 ryushare uploaded keep2share

HD Porn Video 1701

CastingCouch X Jayden Full HD ryushare uploaded keep2share

CastingCouch X Jayden Full HD

[NuruMassage.com / FantasyMassage.com] Katrina Jade And Kimmy Granger ryushare uploaded keep2share

[NuruMassage.com / FantasyMassage.com] Katrina Jade And Kimmy Granger

Kiki – Panties Free Day ryushare uploaded keep2share

Kiki – Panties Free Day

xxxnx videos hd 18 con 226659 ryushare uploaded keep2share

xxxnx videos hd 18 con 226659

Teens in Porno young porn videos and free teen sex 5409 ryushare uploaded keep2share

Teens in Porno young porn videos and free teen sex 5409

Just Clara ryushare uploaded keep2share

Just Clara

Free Porn Videos Xxx Movies Pussy Porn 224680 ryushare uploaded keep2share

Free Porn Videos Xxx Movies Pussy Porn 224680

Hd young videos 3878 ryushare uploaded keep2share

Hd young videos 3878

AbbyWinters.com – Carmina & Pablo ryushare uploaded keep2share

AbbyWinters.com – Carmina & Pablo

First time Sexual Films 18 sex xxx 225737 ryushare uploaded keep2share

First time Sexual Films 18 sex xxx 225737

Wow girls hd porn teens 224580 ryushare uploaded keep2share

Wow girls hd porn teens 224580

21Naturals Sweet Cat ryushare uploaded keep2share

21Naturals Sweet Cat

wwwten sex hd com 226451 ryushare uploaded keep2share

wwwten sex hd com 226451

very low size hd porn videos ryushare uploaded keep2share

very low size hd porn videos

Mindy – As We Lay ryushare uploaded keep2share

Mindy – As We Lay

BRAZZERS sex hd videos download ryushare uploaded keep2share

BRAZZERS sex hd videos download

teen porn at pinkworld ryushare uploaded keep2share

teen porn at pinkworld

Porno movies young teens lesbian 224607 ryushare uploaded keep2share

Porno movies young teens lesbian 224607

HD Porn Videos 4503 ryushare uploaded keep2share

HD Porn Videos 4503

me bbxxxhd 226343 ryushare uploaded keep2share

me bbxxxhd 226343

Teen Sex Movies 224817 ryushare uploaded keep2share

Teen Sex Movies 224817

xxxbf moved ryushare uploaded keep2share

xxxbf moved

Little pornstar teen with a big hole ryushare uploaded keep2share

Little pornstar teen with a big hole

Porn teen hd downloads 5256 ryushare uploaded keep2share

Porn teen hd downloads 5256

Teen 18 Porn XXX Clips Naked 3113 ryushare uploaded keep2share

Teen 18 Porn XXX Clips Naked 3113

Report broken links / Post a comment

You must be logged in to post a comment.



General\r\nComplete name : D:Beautiful modelTSBGRMChlTSBGRMChl.mp4\r\nFormat : MPEG-4\r\nFormat profile : Base Media\r\nCodec ID : isom\r\nFile size : 675 MiB\r\nDuration : 20mn 38s\r\nOverall bit rate mode : Variable\r\nOverall bit rate : 4 570 Kbps\r\nWriting application : Lavf52.64.2\r\n\r\nVideo\r\nID : 1\r\nFormat : AVC\r\nFormat/Info : Advanced Video Codec\r\nFormat profile : [email protected]\r\nFormat settings, CABAC : Yes\r\nFormat settings, ReFrames : 2 frames\r\nCodec ID : avc1\r\nCodec ID/Info : Advanced Video Coding\r\nDuration : 20mn 38s\r\nBit rate : 4 473 Kbps\r\nWidth : 1 920 pixels\r\nHeight : 1 080 pixels\r\nDisplay aspect ratio : 16:9\r\nFrame rate mode : Constant\r\nFrame rate : 29.970 fps\r\nColor space : YUV\r\nChroma subsampling : 4:2:0\r\nBit depth : 8 bits\r\nScan type : Progressive\r\nBits/(Pixel*Frame) : 0.072\r\nStream size : 660 MiB (98%)\r\nWriting library : x264 core 107\r\nEncoding settings : cabac=1 / ref=2 / deblock=1:0:0 / analyse=0x3:0x113 / me=hex / subme=6 / psy=1 / psy_rd=1.00:0.00 / mixed_ref=0 / me_range=16 / chroma_me=1 / trellis=0 / 8x8dct=1 / cqm=0 / deadzone=21,11 / fast_pskip=1 / chroma_qp_offset=-2 / threads=24 / sliced_threads=0 / nr=0 / decimate=1 / interlaced=0 / constrained_intra=0 / bframes=3 / b_pyramid=0 / b_adapt=1 / b_bias=0 / direct=3 / weightb=1 / open_gop=0 / weightp=2 / keyint=250 / keyint_min=25 / scenecut=40 / intra_refresh=0 / rc_lookahead=40 / rc=crf / mbtree=1 / crf=20.0 / qcomp=0.60 / qpmin=10 / qpmax=51 / qpstep=4 / ip_ratio=1.41 / aq=1:1.00\r\n\r\nAudio\r\nID : 2\r\nFormat : AAC\r\nFormat/Info : Advanced Audio Codec\r\nFormat profile : LC\r\nCodec ID : 40\r\nDuration : 20mn 38s\r\nBit rate mode : Variable\r\nBit rate : 91.8 Kbps\r\nChannel(s) : 2 channels\r\nChannel positions : Front: L R\r\nSampling rate : 44.1 KHz\r\nCompression mode : Lossy\r\nStream size : 13.5 MiB (2%)\r\n\r\n