Brandi Melanie Melody – Real Amateur Girls

Whitney Conroy & Alexis Crystal - Sheets In The WindDani Daniels HD Hot Teen

Posted in Amateur, HD Porn, Sex Movies | 5518 Views |


Rate this girl !!!




Real Amateur Girls\r\nrsp_brandi_melanie_melody_720p\r\n\r\nBrandi Melanie Melody – Real Amateur Girls\r\n\r\nBrandi Melanie Melody – Real Amateur Girls\r\n\r\nBrandi Melanie Melody – Real Amateur Girls\r\n\r\nFile: rsp_brandi_melanie_melody_720p_8000.mp4\r\nSize: 2643219440 bytes (2.46 GiB), duration: 00:41:35, avg.bitrate: 8475 kb/s\r\nAudio: aac, 48000 Hz, stereo, s16, 127 kb/s (und)\r\nVideo: h264, yuv420p, 1280×720, 8000 kb/s, 29.97 fps(r) (und)\r\n\r\n\r\n



DOWNLOAD

Keep2share.cc - Uploaded.net - Openload.co - Rapidu.net


http://ryushare.com/53c3b3ce24c5/B.M.M.part1.rar
http://ryushare.com/52dadf2913a0/B.M.M.part2.rar
http://ryushare.com/52dadf29139f/B.M.M.part3.rar
http://keep2share.cc/file/5277042ee8a48
http://keep2share.cc/file/52770423d4815
http://keep2share.cc/file/52770416af3d3
http://ul.to/g0a3t1wr
http://ul.to/kryfstnl
http://ul.to/d0bqu85x



Premium here:
uploaded.net
keep2share.cc
rapidu.net.cc

Teens related to Brandi Melanie Melody – Real Amateur Girls


Dakota James & Hannah Hartman – Blindfold My Baby ryushare uploaded keep2share

Dakota James & Hannah Hartman – Blindfold My Baby

First time Sexual Films 18 sex xxx 4421 ryushare uploaded keep2share

First time Sexual Films 18 sex xxx 4421

Young teens tube hot girls free porn video 1951 ryushare uploaded keep2share

Young teens tube hot girls free porn video 1951

K Craving Lips 3 – B ryushare uploaded keep2share

K Craving Lips 3 – B

Alyona – No Mercy For Your Ass ryushare uploaded keep2share

Alyona – No Mercy For Your Ass

hd low space porn video ryushare uploaded keep2share

hd low space porn video

Hd quality – Teen sex video 1189 ryushare uploaded keep2share

Hd quality – Teen sex video 1189

Free High Quality Sex Movies 3862 ryushare uploaded keep2share

Free High Quality Sex Movies 3862

wow xxxvideoshd ryushare uploaded keep2share

wow xxxvideoshd

Teenies Videos – Teen Porn, Teen Sex, XXX Free Videos 5072 ryushare uploaded keep2share

Teenies Videos – Teen Porn, Teen Sex, XXX Free Videos 5072

The best Teen sex 225923 ryushare uploaded keep2share

The best Teen sex 225923

Hot download sex girls movies 225422 ryushare uploaded keep2share

Hot download sex girls movies 225422

8 Teen XXX – Teen Sex 1972 ryushare uploaded keep2share

8 Teen XXX – Teen Sex 1972

Good Teen Tube Sexy Young Naked Girls Movies 224639 ryushare uploaded keep2share

Good Teen Tube Sexy Young Naked Girls Movies 224639

Hardcore sex videos in the high definition quality 223959 ryushare uploaded keep2share

Hardcore sex videos in the high definition quality 223959

18XGirls.com Tori (aka Lola Taylor) ryushare uploaded keep2share

18XGirls.com Tori (aka Lola Taylor)

Teen Sex Movies 2192 ryushare uploaded keep2share

Teen Sex Movies 2192

kHz xxx sex ryushare uploaded keep2share

kHz xxx sex

Free Young Porn Videos XXX Teen Porn 2569 ryushare uploaded keep2share

Free Young Porn Videos XXX Teen Porn 2569

non HD xxx movie ryushare uploaded keep2share

non HD xxx movie

Young XXX Tube Videos 3931 ryushare uploaded keep2share

Young XXX Tube Videos 3931

Hot download sex girls movies 224915 ryushare uploaded keep2share

Hot download sex girls movies 224915

Young XXX Tube Videos 224700 ryushare uploaded keep2share

Young XXX Tube Videos 224700

Nude Teens fucking hard 1320 ryushare uploaded keep2share

Nude Teens fucking hard 1320

Teenies Videos – Teen Porn, Teen Sex, XXX Free Videos 224383 ryushare uploaded keep2share

Teenies Videos – Teen Porn, Teen Sex, XXX Free Videos 224383

Ariana Marie – Babysitter ryushare uploaded keep2share

Ariana Marie – Babysitter

Teens in Porno young porn videos and free teen sex 224477 ryushare uploaded keep2share

Teens in Porno young porn videos and free teen sex 224477

Wow porn tube movies 4008 ryushare uploaded keep2share

Wow porn tube movies 4008

Adult Hardcore XXX Sex Videos 1705 ryushare uploaded keep2share

Adult Hardcore XXX Sex Videos 1705

Watch Teen Sex Videos HD 1595 ryushare uploaded keep2share

Watch Teen Sex Videos HD 1595

Ariana Marie, Holly Michaels (Rub You The Right Way / 04.11.13) ryushare uploaded keep2share

Ariana Marie, Holly Michaels (Rub You The Right Way / 04.11.13)

Yulia – Wild Anal Slut Owned In The Forest ryushare uploaded keep2share

Yulia – Wild Anal Slut Owned In The Forest

Porn shortest videos free download ryushare uploaded keep2share

Porn shortest videos free download

Wow porn hd downloads 224035 ryushare uploaded keep2share

Wow porn hd downloads 224035

australia teen porn xxx ryushare uploaded keep2share

australia teen porn xxx

Report broken links / Post a comment

You must be logged in to post a comment.



General\r\nComplete name : H:HD TEENS PORN RYUSHARE UPLOADED KEEP2SHARErsp_brandi_melanie_melody_720p_8000.mp4\r\nFormat : MPEG-4\r\nFormat profile : Base Media\r\nCodec ID : isom\r\nFile size : 2.46 GiB\r\nDuration : 41mn 35s\r\nOverall bit rate : 8 474 Kbps\r\nWriting application : Lavf55.1.100\r\n\r\nVideo\r\nID : 1\r\nFormat : AVC\r\nFormat/Info : Advanced Video Codec\r\nFormat profile : [email protected]\r\nFormat settings, CABAC : Yes\r\nFormat settings, ReFrames : 5 frames\r\nCodec ID : avc1\r\nCodec ID/Info : Advanced Video Coding\r\nDuration : 41mn 35s\r\nBit rate : 8 000 Kbps\r\nWidth : 1 280 pixels\r\nHeight : 720 pixels\r\nDisplay aspect ratio : 16:9\r\nFrame rate mode : Constant\r\nFrame rate : 29.970 fps\r\nColor space : YUV\r\nChroma subsampling : 4:2:0\r\nBit depth : 8 bits\r\nScan type : Progressive\r\nBits/(Pixel*Frame) : 0.290\r\nStream size : 2.32 GiB (94%)\r\nWriting library : x264 core 130 r2274 c832fe9\r\nEncoding settings : cabac=1 / ref=5 / deblock=1:0:0 / analyse=0x3:0x113 / me=umh / subme=8 / psy=1 / psy_rd=1.00:0.00 / mixed_ref=1 / me_range=16 / chroma_me=1 / trellis=1 / 8x8dct=1 / cqm=0 / deadzone=21,11 / fast_pskip=1 / chroma_qp_offset=-2 / threads=36 / lookahead_threads=5 / sliced_threads=0 / nr=0 / decimate=1 / interlaced=0 / bluray_compat=0 / constrained_intra=0 / bframes=3 / b_pyramid=2 / b_adapt=2 / b_bias=0 / direct=3 / weightb=1 / open_gop=0 / weightp=2 / keyint=60 / keyint_min=6 / scenecut=40 / intra_refresh=0 / rc_lookahead=50 / rc=abr / mbtree=1 / bitrate=8000 / ratetol=1.0 / qcomp=0.60 / qpmin=0 / qpmax=69 / qpstep=4 / ip_ratio=1.40 / aq=1:1.00\r\nTagged date : UTC 2013-10-05 02:43:54\r\n\r\nAudio\r\nID : 2\r\nFormat : AAC\r\nFormat/Info : Advanced Audio Codec\r\nFormat profile : LC\r\nCodec ID : 40\r\nDuration : 41mn 35s\r\nDuration_LastFrame : 33ms\r\nBit rate mode : Constant\r\nBit rate : 128 Kbps\r\nChannel(s) : 2 channels\r\nChannel positions : Front: L R\r\nSampling rate : 48.0 KHz\r\nCompression mode : Lossy\r\nStream size : 38.1 MiB (2%)\r\nTagged date : UTC 2013-10-05 02:43:54