[Castingcouch-X.com] Alex Tanner

21Naturals.com AshleyYoungCourtesans.com Brian, Vera – Exquisite Young Courtesan

Posted in Amateur, HD Porn, Sex Movies, Teen | 10775 Views |


Rate this girl !!!




cover\r\n\r\n1920x1080p / MP4 / 1.97 GB\r\n

[Castingcouch-X.com] Alex Tanner

\r\nSCREENSHOTS:\r\n\r\nscreens



DOWNLOAD

Keep2share.cc - Uploaded.net - Openload.co - Rapidu.net


http://ul.to/jyrggwm6/c4st1ngcovchx.4l3x.t4nn3r.29.09.14_1080.mp4

http://played.to/jhwzdunok2lp



Premium here:
uploaded.net
keep2share.cc
rapidu.net.cc


Teens related to [Castingcouch-X.com] Alex Tanner


Teens in Porno young porn videos and free teen sex 225522 ryushare uploaded keep2share

Teens in Porno young porn videos and free teen sex 225522

Teenage Fuck Clips 4687 ryushare uploaded keep2share

Teenage Fuck Clips 4687

Teen xxx sex hd 5505 ryushare uploaded keep2share

Teen xxx sex hd 5505

8 Teen XXX – Teen Sex 1309 ryushare uploaded keep2share

8 Teen XXX – Teen Sex 1309

xxxxsexvideo 226647 ryushare uploaded keep2share

xxxxsexvideo 226647

Teen porn movies 224770 ryushare uploaded keep2share

Teen porn movies 224770

Teen Sex Movies Young Porn Tube Vids 224610 ryushare uploaded keep2share

Teen Sex Movies Young Porn Tube Vids 224610

www dani daniels hd xxx video com 226136 ryushare uploaded keep2share

www dani daniels hd xxx video com 226136

Teen porn movies 1676 ryushare uploaded keep2share

Teen porn movies 1676

Young XXX Tube Videos 2398 ryushare uploaded keep2share

Young XXX Tube Videos 2398

hd china teen sex video download ryushare uploaded keep2share

hd china teen sex video download

Victoria Paradice – Where Did That Ass Come From ryushare uploaded keep2share

Victoria Paradice – Where Did That Ass Come From

faapy x vedios com 226486 ryushare uploaded keep2share

faapy x vedios com 226486

21Natural hd teen free ryushare uploaded keep2share

21Natural hd teen free

sex hd gir down video com ryushare uploaded keep2share

sex hd gir down video com

xxx teen clips 226044 ryushare uploaded keep2share

xxx teen clips 226044

Amy – Pick Up Fuck With Blonde In Hot Lingerie ryushare uploaded keep2share

Amy – Pick Up Fuck With Blonde In Hot Lingerie

HD Porn Videos 1486 ryushare uploaded keep2share

HD Porn Videos 1486

Hot Teen Sex HD videos 2167 ryushare uploaded keep2share

Hot Teen Sex HD videos 2167

Porn party teen girls 225405 ryushare uploaded keep2share

Porn party teen girls 225405

Teen Sex Movies 225206 ryushare uploaded keep2share

Teen Sex Movies 225206

Wow porn tube movies 224392 ryushare uploaded keep2share

Wow porn tube movies 224392

8 Teen XXX – Teen Sex 224953 ryushare uploaded keep2share

8 Teen XXX – Teen Sex 224953

Teens 1080p hd porn 2862 ryushare uploaded keep2share

Teens 1080p hd porn 2862

First time Sexual Films 18 sex xxx 4745 ryushare uploaded keep2share

First time Sexual Films 18 sex xxx 4745

Teen 18 Porn XXX Clips Naked 3589 ryushare uploaded keep2share

Teen 18 Porn XXX Clips Naked 3589

Stella Cox – No Panties ryushare uploaded keep2share

Stella Cox – No Panties

8 Teen XXX – Teen Sex 3987 ryushare uploaded keep2share

8 Teen XXX – Teen Sex 3987

www 89xxxxxx in 226641 ryushare uploaded keep2share

www 89xxxxxx in 226641

Wow Girls Porn Clips download 224521 ryushare uploaded keep2share

Wow Girls Porn Clips download 224521

pc hd porn xxx video ryushare uploaded keep2share

pc hd porn xxx video

Alexia aka Kitty Jane (Secret Part I) ryushare uploaded keep2share

Alexia aka Kitty Jane (Secret Part I)

apetubegirls ryushare uploaded keep2share

apetubegirls

www sexvideo hd1280 226502 ryushare uploaded keep2share

www sexvideo hd1280 226502

Free High Quality Sex Movies 225393 ryushare uploaded keep2share

Free High Quality Sex Movies 225393

Report broken links / Post a comment

You must be logged in to post a comment.



[Castingcouch-X.com] Alex Tanner \r\n\r\nGeneral\r\nComplete name : J:HD Teens Movies Young Downloads Online Clips Scenes[Castingcouch-X.com] Alex Tanner c4st1ngcovchx.4l3x.t4nn3r.29.09.14_1080.mp4\r\nFormat : MPEG-4\r\nFormat profile : Base Media\r\nCodec ID : isom\r\nFile size : 1.97 GiB\r\nDuration : 33mn 40s\r\nOverall bit rate : 8 377 Kbps\r\nWriting application : Lavf55.44.100\r\n\r\nVideo\r\nID : 1\r\nFormat : AVC\r\nFormat/Info : Advanced Video Codec\r\nFormat profile : [email protected]\r\nFormat settings, CABAC : No\r\nFormat settings, ReFrames : 2 frames\r\nCodec ID : avc1\r\nCodec ID/Info : Advanced Video Coding\r\nDuration : 33mn 40s\r\nBit rate : 8 243 Kbps\r\nWidth : 1 920 pixels\r\nHeight : 1 080 pixels\r\nDisplay aspect ratio : 16:9\r\nFrame rate mode : Constant\r\nFrame rate : 29.970 fps\r\nColor space : YUV\r\nChroma subsampling : 4:2:0\r\nBit depth : 8 bits\r\nScan type : Progressive\r\nBits/(Pixel*Frame) : 0.133\r\nStream size : 1.94 GiB (98%)\r\nWriting library : x264 core 142 r2431 a5831aa\r\nEncoding settings : cabac=0 / ref=2 / deblock=1:0:0 / analyse=0x1:0x111 / me=hex / subme=6 / psy=1 / psy_rd=1.00:0.00 / mixed_ref=1 / me_range=16 / chroma_me=1 / trellis=1 / 8x8dct=0 / cqm=0 / deadzone=21,11 / fast_pskip=1 / chroma_qp_offset=-2 / threads=2 / lookahead_threads=1 / sliced_threads=0 / nr=0 / decimate=1 / interlaced=0 / bluray_compat=0 / constrained_intra=0 / bframes=0 / weightp=0 / keyint=250 / keyint_min=25 / scenecut=40 / intra_refresh=0 / rc_lookahead=30 / rc=crf / mbtree=1 / crf=18.0 / qcomp=0.60 / qpmin=0 / qpmax=69 / qpstep=4 / ip_ratio=1.40 / aq=1:1.00\r\nLanguage : English\r\n\r\nAudio\r\nID : 2\r\nFormat : AAC\r\nFormat/Info : Advanced Audio Codec\r\nFormat profile : LC\r\nCodec ID : 40\r\nDuration : 33mn 40s\r\nBit rate mode : Constant\r\nBit rate : 127 Kbps\r\nChannel count : 2 channels\r\nChannel positions : Front: L R\r\nSampling rate : 48.0 KHz\r\nCompression mode : Lossy\r\nStream size : 30.7 MiB (2%)\r\nLanguage : English\r\n\r\n