Dani Daniels HD Hot Teen

Brandi Melanie Melody - Real Amateur GirlsBig Birthday Party Fuck in Ibiza

Posted in Amateur, HD Porn, Sex Movies, Teen | 15403 Views |


Rate this girl !!!




Dani Daniels HD Hot Teen\r\n\r\nDani Daniels HD Hot Teen\r\n\r\nDani Daniels HD Hot Teen\r\n\r\nFile: dani.daniels.hot.hdteenmania.wmv\r\nSize: 1675307413 bytes (1.56 GiB), duration: 00:24:53, avg.bitrate: 8977 kb/s\r\nAudio: wmav2, 44100 Hz, 2 channels, s16, 128 kb/s\r\nVideo: wmv3, yuv420p, 1920×1080, 23.98 fps(r)\r\n\r\n\r\n\r\n



DOWNLOAD

Keep2share.cc - Uploaded.net - Openload.co - Rapidu.net


http://keep2share.cc/file/5276045c64229
http://keep2share.cc/file/527604481ee93
http://ul.to/zur912jz
http://ul.to/cz6eaxg8
http://ryushare.com/281bd4daf989/d4N1.D4N1.part1.rar
http://ryushare.com/2904a9800ca9/d4N1.D4N1.part2.rar


Premium here:
uploaded.net
keep2share.cc
rapidu.net.cc

Teens related to Dani Daniels HD Hot Teen


Free Porn Videos Xxx Movies Pussy Porn 5324 ryushare uploaded keep2share

Free Porn Videos Xxx Movies Pussy Porn 5324

HD Porn Teen Sex Videos 224669 ryushare uploaded keep2share

HD Porn Teen Sex Videos 224669

Teen Sex Porn Videos Free Nude Teens 1518 ryushare uploaded keep2share

Teen Sex Porn Videos Free Nude Teens 1518

Connie – More Than I Could Wish Forpic ryushare uploaded keep2share

Connie – More Than I Could Wish Forpic

me bbxxxhd 226343 ryushare uploaded keep2share

me bbxxxhd 226343

Young XXX Tube Videos 1801 ryushare uploaded keep2share

Young XXX Tube Videos 1801

Free Direct Download hd romantic porn movies ryushare uploaded keep2share

Free Direct Download hd romantic porn movies

Hot Teen Sex 224413 ryushare uploaded keep2share

Hot Teen Sex 224413

JimSlip – Tina Hot – From book-worm to whore ryushare uploaded keep2share

JimSlip – Tina Hot – From book-worm to whore

X-Angels.com Olivia ryushare uploaded keep2share

X-Angels.com Olivia

Teen 18 Porn XXX Clips Naked 3589 ryushare uploaded keep2share

Teen 18 Porn XXX Clips Naked 3589

Young Virgin Pussy Teen Fuck Tube 4403 ryushare uploaded keep2share

Young Virgin Pussy Teen Fuck Tube 4403

free sex movies ppran ryushare uploaded keep2share

free sex movies ppran

Bella Baby 2013 – Facial Double Blowjob Cumshot ryushare uploaded keep2share

Bella Baby 2013 – Facial Double Blowjob Cumshot

Watch Teen Sex Videos HD 225363 ryushare uploaded keep2share

Watch Teen Sex Videos HD 225363

HQ Sex Movies Download 4182 ryushare uploaded keep2share

HQ Sex Movies Download 4182

HQ Sex Movies Download 225481 ryushare uploaded keep2share

HQ Sex Movies Download 225481

TeenyLovers – Zlata ryushare uploaded keep2share

TeenyLovers – Zlata

Girls sex art hd teens videos 225709 ryushare uploaded keep2share

Girls sex art hd teens videos 225709

Teen Tits Tube, Young Girls Porn Videos 225086 ryushare uploaded keep2share

Teen Tits Tube, Young Girls Porn Videos 225086

Movies Young legal porn 223668 ryushare uploaded keep2share

Movies Young legal porn 223668

Hd quality – Teen sex video 1722 ryushare uploaded keep2share

Hd quality – Teen sex video 1722

Teen Porn XXX Tube 1280 ryushare uploaded keep2share

Teen Porn XXX Tube 1280

Wow Girls Porn Clips download 225381 ryushare uploaded keep2share

Wow Girls Porn Clips download 225381

Porn HD Sex HD Teen Sex 4153 ryushare uploaded keep2share

Porn HD Sex HD Teen Sex 4153

Teen Sex Movies 223947 ryushare uploaded keep2share

Teen Sex Movies 223947

Tube Young Sex 3798 ryushare uploaded keep2share

Tube Young Sex 3798

Eva, Alberta, Niona, Nora – Sex party ryushare uploaded keep2share

Eva, Alberta, Niona, Nora – Sex party

seks party model porno 226206 ryushare uploaded keep2share

seks party model porno 226206

xxx www888 ryushare uploaded keep2share

xxx www888

HD Sex World Videos High Definition Free Porn 1997 ryushare uploaded keep2share

HD Sex World Videos High Definition Free Porn 1997

Hot Teen Sex 2145 ryushare uploaded keep2share

Hot Teen Sex 2145

Free Young Porn Videos XXX Teen Porn 3495 ryushare uploaded keep2share

Free Young Porn Videos XXX Teen Porn 3495

hd 720p porn vdo download ryushare uploaded keep2share

hd 720p porn vdo download

Porn teen hd downloads 224748 ryushare uploaded keep2share

Porn teen hd downloads 224748

Report broken links / Post a comment

You must be logged in to post a comment.



General\r\nComplete name : H:TEMPdani.daniels.hot.hdteenmania.wmv\r\nFormat : Windows Media\r\nFile size : 1.56 GiB\r\nDuration : 24mn 53s\r\nOverall bit rate mode : Constant\r\nOverall bit rate : 8 974 Kbps\r\nMaximum Overall bit rate : 9 128 Kbps\r\nMovie name : Download from HDteenmania.com\r\nDescription : Download from HDteenmania.com\r\nEncoded date : UTC 1970-01-01 00:00:00.000\r\nDeviceConformanceTemplate : [email protected]\r\ntitle : Downloaded from RARBG.COM\r\nWM/EncodingSettings : Lavf55.19.103\r\n\r\nVideo\r\nID : 1\r\nFormat : VC-1\r\nFormat profile : Main\r\nCodec ID : WMV3\r\nCodec ID/Info : Windows Media Video 9\r\nCodec ID/Hint : WMV3\r\nDuration : 24mn 53s\r\nBit rate : 8 481 Kbps\r\nWidth : 1 920 pixels\r\nHeight : 1 080 pixels\r\nDisplay aspect ratio : 16:9\r\nFrame rate : 24.000 fps\r\nBit depth : 8 bits\r\nScan type : Progressive\r\nCompression mode : Lossy\r\nBits/(Pixel*Frame) : 0.170\r\nStream size : 1.47 GiB (95%)\r\n\r\nAudio\r\nID : 2\r\nFormat : WMA\r\nFormat version : Version 2\r\nCodec ID : 161\r\nCodec ID/Info : Windows Media Audio\r\nDescription of the codec : Windows Media Audio V8\r\nDuration : 24mn 53s\r\nBit rate : 128 Kbps\r\nChannel(s) : 2 channels\r\nSampling rate : 44.1 KHz\r\nBit depth : 16 bits\r\nStream size : 22.8 MiB (1%)