FantasyHD.com – Emily Grey – Teen Thigh Gap

HD Porn Teen Sex Videos 2182AbbyWinters.com - Carmina & Pablo

Posted in HD Porn, Pornstar, Sex Movies, Teen | 10682 Views |


Rate this girl !!!




cover\r\n\r\n1920x1080p / MP4 / 1005.66 MB\r\n

[FantasyHD.com] Emily Grey – Teen Thigh Gap

\r\nSCREENSHOTS:\r\n\r\nscreens



DOWNLOAD

Keep2share.cc - Uploaded.net - Openload.co - Rapidu.net


http://played.to/eimedkfyx5pu

http://ul.to/ybv71jjg/f4nt4syhd_3milyGr3y_g3_i080.mp4


Premium here:
uploaded.net
keep2share.cc
rapidu.net.cc


Teens related to FantasyHD.com – Emily Grey – Teen Thigh Gap


teen porn at pinkworld ryushare uploaded keep2share

teen porn at pinkworld

Our Kind Of Fun ryushare uploaded keep2share

Our Kind Of Fun

Www sexy videos shart mb com 226066 ryushare uploaded keep2share

Www sexy videos shart mb com 226066

Teen 18 Porn XXX Clips Naked 1367 ryushare uploaded keep2share

Teen 18 Porn XXX Clips Naked 1367

Hot Teen Sex 224220 ryushare uploaded keep2share

Hot Teen Sex 224220

www virgin sex hd porn videos com ryushare uploaded keep2share

www virgin sex hd porn videos com

Hot Teen Sex 3965 ryushare uploaded keep2share

Hot Teen Sex 3965

sax yas xxx ryushare uploaded keep2share

sax yas xxx

Beautiful brunette teen fucking from behind Hd ryushare uploaded keep2share

Beautiful brunette teen fucking from behind Hd

HDMassagePorn – Gianna – Sporty Blonde In Hot HD Porn ryushare uploaded keep2share

HDMassagePorn – Gianna – Sporty Blonde In Hot HD Porn

High Definition Movies on HD Teen Porn XXX Tube 223972 ryushare uploaded keep2share

High Definition Movies on HD Teen Porn XXX Tube 223972

Hot download sex girls movies 5611 ryushare uploaded keep2share

Hot download sex girls movies 5611

Tube Young Sex 4191 ryushare uploaded keep2share

Tube Young Sex 4191

The best Teen sex 5166 ryushare uploaded keep2share

The best Teen sex 5166

Amateur Teen Sex 223903 ryushare uploaded keep2share

Amateur Teen Sex 223903

Free High Quality Sex Movies 225182 ryushare uploaded keep2share

Free High Quality Sex Movies 225182

Chinara, Peachy – Cum And Be Happy ryushare uploaded keep2share

Chinara, Peachy – Cum And Be Happy

21Naturals.com Alysa Gap ryushare uploaded keep2share

21Naturals.com Alysa Gap

Viola Paige – Intense Feelings ryushare uploaded keep2share

Viola Paige – Intense Feelings

download movies sexx hd ryushare uploaded keep2share

download movies sexx hd

Wow girls porn teens 2578 ryushare uploaded keep2share

Wow girls porn teens 2578

21Naturals.com Ava Dalush – Puppeteer ryushare uploaded keep2share

21Naturals.com Ava Dalush – Puppeteer

Hot Teen Sex 2145 ryushare uploaded keep2share

Hot Teen Sex 2145

Hot Teen Sex 2379 ryushare uploaded keep2share

Hot Teen Sex 2379

Free Porn Videos Xxx Movies Pussy Porn 225817 ryushare uploaded keep2share

Free Porn Videos Xxx Movies Pussy Porn 225817

xxx photos HD MP4/ ryushare uploaded keep2share

xxx photos HD MP4/

[FTVGirls.com] 2016-10-07 – Eva & Violet Starr – College Girls In Love [Lesbo, Toys, Fisting, 1080p] ryushare uploaded keep2share

[FTVGirls.com] 2016-10-07 – Eva & Violet Starr – College Girls In Love [Lesbo, Toys, Fisting, 1080p]

Young 720p hd porn 3634 ryushare uploaded keep2share

Young 720p hd porn 3634

Jenny Glam – Who’s My Good Girl? ryushare uploaded keep2share

Jenny Glam – Who’s My Good Girl?

Wow girls hd porn teens 223846 ryushare uploaded keep2share

Wow girls hd porn teens 223846

Big tits blonde with pierced nipples ryushare uploaded keep2share

Big tits blonde with pierced nipples

Young teens tube hot girls free porn video 2828 ryushare uploaded keep2share

Young teens tube hot girls free porn video 2828

Nude Teens fucking hard 4646 ryushare uploaded keep2share

Nude Teens fucking hard 4646

Alexis Rodriguez – So Much Ass ryushare uploaded keep2share

Alexis Rodriguez – So Much Ass

full hd smooth sex videos 226484 ryushare uploaded keep2share

full hd smooth sex videos 226484

Report broken links / Post a comment

You must be logged in to post a comment.



General\r\nComplete name : J:HD Teens Movies Young Downloads Online Clips Scenes[FantasyHD.com] Emily Grey – Teen Thigh Gap.mp4\r\nFormat : MPEG-4\r\nFormat profile : Base Media\r\nCodec ID : isom\r\nFile size : 1 006 MiB\r\nDuration : 20mn 39s\r\nOverall bit rate mode : Variable\r\nOverall bit rate : 6 805 Kbps\r\nWriting application : Lavf55.44.100\r\n\r\nVideo\r\nID : 1\r\nFormat : AVC\r\nFormat/Info : Advanced Video Codec\r\nFormat profile : [email protected]\r\nFormat settings, CABAC : No\r\nFormat settings, ReFrames : 2 frames\r\nCodec ID : avc1\r\nCodec ID/Info : Advanced Video Coding\r\nDuration : 20mn 39s\r\nBit rate : 6 699 Kbps\r\nWidth : 1 920 pixels\r\nHeight : 1 080 pixels\r\nDisplay aspect ratio : 16:9\r\nFrame rate mode : Constant\r\nFrame rate : 23.976 fps\r\nColor space : YUV\r\nChroma subsampling : 4:2:0\r\nBit depth : 8 bits\r\nScan type : Progressive\r\nBits/(Pixel*Frame) : 0.135\r\nStream size : 990 MiB (98%)\r\nWriting library : x264 core 142 r2431 a5831aa\r\nEncoding settings : cabac=0 / ref=2 / deblock=1:0:0 / analyse=0x1:0x111 / me=hex / subme=6 / psy=1 / psy_rd=1.00:0.00 / mixed_ref=1 / me_range=16 / chroma_me=1 / trellis=1 / 8x8dct=0 / cqm=0 / deadzone=21,11 / fast_pskip=1 / chroma_qp_offset=-2 / threads=2 / lookahead_threads=1 / sliced_threads=0 / nr=0 / decimate=1 / interlaced=0 / bluray_compat=0 / constrained_intra=0 / bframes=0 / weightp=0 / keyint=250 / keyint_min=23 / scenecut=40 / intra_refresh=0 / rc_lookahead=30 / rc=crf / mbtree=1 / crf=18.0 / qcomp=0.60 / qpmin=0 / qpmax=69 / qpstep=4 / ip_ratio=1.40 / aq=1:1.00\r\nLanguage : English\r\n\r\nAudio\r\nID : 2\r\nFormat : AAC\r\nFormat/Info : Advanced Audio Codec\r\nFormat profile : LC\r\nCodec ID : 40\r\nDuration : 20mn 39s\r\nBit rate mode : Variable\r\nBit rate : 101 Kbps\r\nMaximum bit rate : 128 Kbps\r\nChannel count : 2 channels\r\nChannel positions : Front: L R\r\nSampling rate : 48.0 KHz\r\nCompression mode : Lossy\r\nStream size : 15.0 MiB (1%)\r\nLanguage : English\r\n\r\n