First time Sexual Films 18 sex xxx 1966

High Definition Movies on HD 1969Hardcore Sex Hub 1963

Posted in Amateur, HD Porn, Sex Movies, Teen | 9546 Views |


Rate this girl !!!




\r\n\r\n \r\n\r\nhttp://img102.imagetwist.com/i/05303/q86yxgqo8opy.jpeg\r\n\r\nLink(758 Mb||21:28||1280*720||MP4)



DOWNLOAD

Keep2share.cc - Uploaded.net - Openload.co - Rapidu.net


http://k2s.cc/file/ef372b01e4795/DRNGSClp.rar
http://ryushare.com/v17wi77qirwo/DRNGSClp.rar
http://ul.to/inm279y1/DRNGSClp.rar


Premium here:
uploaded.net
keep2share.cc
rapidu.net.cc


Teens related to First time Sexual Films 18 sex xxx 1966


Young Sex Movies 5419 ryushare uploaded keep2share

Young Sex Movies 5419

HD Porn Video 5532 ryushare uploaded keep2share

HD Porn Video 5532

Good Teen Tube Sexy Young Naked Girls Movies 225493 ryushare uploaded keep2share

Good Teen Tube Sexy Young Naked Girls Movies 225493

WoodmanCastingX Viola Bailey Hard mega co nz/|depositfiles com/files|uploaded to|ul to/ 226656 ryushare uploaded keep2share

WoodmanCastingX Viola Bailey Hard mega co nz/|depositfiles com/files|uploaded to|ul to/ 226656

Natali – PublicAgent ryushare uploaded keep2share

Natali – PublicAgent

Porno movies young teens lesbian 5372 ryushare uploaded keep2share

Porno movies young teens lesbian 5372

Teens in Porno young porn videos and free teen sex 5650 ryushare uploaded keep2share

Teens in Porno young porn videos and free teen sex 5650

Young Virgin Pussy Teen Fuck Tube 4173 ryushare uploaded keep2share

Young Virgin Pussy Teen Fuck Tube 4173

Young xxx 224931 ryushare uploaded keep2share

Young xxx 224931

Teens in Porno young porn videos and free teen sex 5211 ryushare uploaded keep2share

Teens in Porno young porn videos and free teen sex 5211

Orgy with pornstar young blonde teen ryushare uploaded keep2share

Orgy with pornstar young blonde teen

WMV HD HIGH porn 226134 ryushare uploaded keep2share

WMV HD HIGH porn 226134

Nude Teens fucking hard 1617 ryushare uploaded keep2share

Nude Teens fucking hard 1617

1080p pornstar 226032 ryushare uploaded keep2share

1080p pornstar 226032

Teen Sex Videos Tube Movies 1740 ryushare uploaded keep2share

Teen Sex Videos Tube Movies 1740

antartika poeno sex 226048 ryushare uploaded keep2share

antartika poeno sex 226048

Morgan Brooke – Very hot teen – Tease.Me ryushare uploaded keep2share

Morgan Brooke – Very hot teen – Tease.Me

The best Teen sex 3599 ryushare uploaded keep2share

The best Teen sex 3599

Teen porn movies 1954 ryushare uploaded keep2share

Teen porn movies 1954

www hd video 18 xxx 226637 ryushare uploaded keep2share

www hd video 18 xxx 226637

SpinChix mp4 226131 ryushare uploaded keep2share

SpinChix mp4 226131

GirlsDoPorn – 19 Years Old Girl – Legal Teens ryushare uploaded keep2share

GirlsDoPorn – 19 Years Old Girl – Legal Teens

Wow porn hd downloads 224041 ryushare uploaded keep2share

Wow porn hd downloads 224041

First time Sexual Films 18 sex xxx 4745 ryushare uploaded keep2share

First time Sexual Films 18 sex xxx 4745

Teenies Videos – Teen Porn, Teen Sex, XXX Free Videos 1152 ryushare uploaded keep2share

Teenies Videos – Teen Porn, Teen Sex, XXX Free Videos 1152

ClubSeventeen.com SiteRip – Part 1 ryushare uploaded keep2share

ClubSeventeen.com SiteRip – Part 1

Eva Rides on Top on a Nice Thick Cock ryushare uploaded keep2share

Eva Rides on Top on a Nice Thick Cock

Wow girls downloads hd 225203 ryushare uploaded keep2share

Wow girls downloads hd 225203

young prom xxx sex video hd download ryushare uploaded keep2share

young prom xxx sex video hd download

porn videos direct download 226299 ryushare uploaded keep2share

porn videos direct download 226299

Model porno sex 4859 ryushare uploaded keep2share

Model porno sex 4859

Teens 1080p hd porn 4179 ryushare uploaded keep2share

Teens 1080p hd porn 4179

Pchd full fuckin video 226436 ryushare uploaded keep2share

Pchd full fuckin video 226436

Backyard Amateurs (3 scenes) ryushare uploaded keep2share

Backyard Amateurs (3 scenes)

Young Virgin Pussy Teen Fuck Tube 224545 ryushare uploaded keep2share

Young Virgin Pussy Teen Fuck Tube 224545

Report broken links / Post a comment

You must be logged in to post a comment.



General\r\nComplete name : D:DRNGSClpDRNGSClp.mp4\r\nFormat : MPEG-4\r\nFormat profile : Base Media\r\nCodec ID : isom\r\nFile size : 758 MiB\r\nDuration : 21mn 28s\r\nOverall bit rate mode : Variable\r\nOverall bit rate : 4 932 Kbps\r\nWriting application : Lavf52.93.0\r\n\r\nVideo\r\nID : 1\r\nFormat : AVC\r\nFormat/Info : Advanced Video Codec\r\nFormat profile : [email protected]\r\nFormat settings, CABAC : Yes\r\nFormat settings, ReFrames : 4 frames\r\nCodec ID : avc1\r\nCodec ID/Info : Advanced Video Coding\r\nDuration : 21mn 28s\r\nBit rate : 4 800 Kbps\r\nWidth : 1 280 pixels\r\nHeight : 720 pixels\r\nDisplay aspect ratio : 16:9\r\nFrame rate mode : Constant\r\nFrame rate : 29.970 fps\r\nColor space : YUV\r\nChroma subsampling : 4:2:0\r\nBit depth : 8 bits\r\nScan type : Progressive\r\nBits/(Pixel*Frame) : 0.174\r\nStream size : 733 MiB (97%)\r\nWriting library : x264 core 107\r\nEncoding settings : cabac=1 / ref=3 / deblock=1:0:0 / analyse=0x3:0x113 / me=umh / subme=6 / psy=1 / psy_rd=1.00:0.00 / mixed_ref=1 / me_range=16 / chroma_me=1 / trellis=0 / 8x8dct=1 / cqm=0 / deadzone=21,11 / fast_pskip=1 / chroma_qp_offset=-2 / threads=1 / sliced_threads=0 / nr=0 / decimate=1 / interlaced=0 / constrained_intra=0 / bframes=2 / b_pyramid=2 / b_adapt=2 / b_bias=0 / direct=2 / weightb=1 / open_gop=0 / weightp=0 / keyint=30 / keyint_min=16 / scenecut=0 / intra_refresh=0 / rc_lookahead=30 / rc=abr / mbtree=1 / bitrate=4800 / ratetol=1.0 / qcomp=0.60 / qpmin=1 / qpmax=31 / qpstep=4 / ip_ratio=1.41 / aq=1:1.00\r\n\r\nAudio\r\nID : 2\r\nFormat : AAC\r\nFormat/Info : Advanced Audio Codec\r\nFormat profile : LC\r\nCodec ID : 40\r\nDuration : 21mn 28s\r\nBit rate mode : Variable\r\nBit rate : 152 Kbps\r\nChannel(s) : 2 channels\r\nChannel positions : Front: L R\r\nSampling rate : 44.1 KHz\r\nCompression mode : Lossy\r\nStream size : 23.3 MiB (3%)\r\n\r\n