Free High Quality Sex Movies 3816

Hd quality - Teen sex video 3819HD sex movies downloads 3812

Posted in HD Porn, Pornstar, Sex Movies, Teen | 16623 Views |


Rate this girl !!!




cover

\r\n

1920x1080p / MP4 / 532.67 MB

\r\n

UPLOADED / RYUSHARE / FILEOM / KEEP2SHARE

\r\n

SCREENSHOTS:

\r\n

screens



DOWNLOAD

Keep2share.cc - Uploaded.net - Openload.co - Rapidu.net


http://ul.to/97o9sgtg/Craving_For_Sex_HD1080.mp4
http://ryushare.com/oe5539rurycc/Craving_For_Sex_HD1080.mp4
http://k2s.cc/file/ea7dd0d5d384b/Craving_For_Sex_HD1080.mp4
http://fileom.com/hpclk2aw98ol/Craving_For_Sex_HD1080.mp4.html


Premium here:
uploaded.net
keep2share.cc
rapidu.net.cc


Teens related to Free High Quality Sex Movies 3816


Teen Sex Movies Young Porn Tube Vids 1253 ryushare uploaded keep2share

Teen Sex Movies Young Porn Tube Vids 1253

Teen Sex Porn Videos Free Nude Teens 3857 ryushare uploaded keep2share

Teen Sex Porn Videos Free Nude Teens 3857

High Definition Movies on HD 224619 ryushare uploaded keep2share

High Definition Movies on HD 224619

Teen Sex Movies Young Porn Tube Vids 2104 ryushare uploaded keep2share

Teen Sex Movies Young Porn Tube Vids 2104

www hdxxxfuck me 226303 ryushare uploaded keep2share

www hdxxxfuck me 226303

www xxx hb movi 226762 ryushare uploaded keep2share

www xxx hb movi 226762

Porn party teen girls 224921 ryushare uploaded keep2share

Porn party teen girls 224921

Good Teen Tube Sexy Young Naked Girls Movies 2395 ryushare uploaded keep2share

Good Teen Tube Sexy Young Naked Girls Movies 2395

HD Porn Videos 224706 ryushare uploaded keep2share

HD Porn Videos 224706

AbbyWinters.com – Carmina & Pablo ryushare uploaded keep2share

AbbyWinters.com – Carmina & Pablo

Sex Teens porn movies 3015 ryushare uploaded keep2share

Sex Teens porn movies 3015

Denise Sky ryushare uploaded keep2share

Denise Sky

8 Teen XXX – Teen Sex 3479 ryushare uploaded keep2share

8 Teen XXX – Teen Sex 3479

Hardcore Sex Hub 1315 ryushare uploaded keep2share

Hardcore Sex Hub 1315

Petite Teeny Who Loves Cock ryushare uploaded keep2share

Petite Teeny Who Loves Cock

HD Sex World Videos High Definition Free Porn 3501 ryushare uploaded keep2share

HD Sex World Videos High Definition Free Porn 3501

WowGirls Livia Grace C Getting Off Without A Cock ryushare uploaded keep2share

WowGirls Livia Grace C Getting Off Without A Cock

Hd young videos 224038 ryushare uploaded keep2share

Hd young videos 224038

Teen xxx sex hd 5239 ryushare uploaded keep2share

Teen xxx sex hd 5239

www hd teen movie download com 226210 ryushare uploaded keep2share

www hd teen movie download com 226210

Teen Porn XXX Tube 1957 ryushare uploaded keep2share

Teen Porn XXX Tube 1957

Adult Hardcore XXX Sex Videos 3788 ryushare uploaded keep2share

Adult Hardcore XXX Sex Videos 3788

Fresh Teen Videos 224583 ryushare uploaded keep2share

Fresh Teen Videos 224583

Taissia Shanti – Delicate ryushare uploaded keep2share

Taissia Shanti – Delicate

www 18 videos lk ryushare uploaded keep2share

www 18 videos lk

Fucking with young athlete ryushare uploaded keep2share

Fucking with young athlete

www xxx fusking high hd download 226692 ryushare uploaded keep2share

www xxx fusking high hd download 226692

HD Sex World Videos High Definition Free Porn 5219 ryushare uploaded keep2share

HD Sex World Videos High Definition Free Porn 5219

Tanned teen in pink sofa ryushare uploaded keep2share

Tanned teen in pink sofa

First time Sexual Films 18 sex xxx 3689 ryushare uploaded keep2share

First time Sexual Films 18 sex xxx 3689

Teenies Videos – Teen Porn, Teen Sex, XXX Free Videos 2114 ryushare uploaded keep2share

Teenies Videos – Teen Porn, Teen Sex, XXX Free Videos 2114

Lucy Li – Perky Teen Lucy Li Gets Lathered download in hd 226168 ryushare uploaded keep2share

Lucy Li – Perky Teen Lucy Li Gets Lathered download in hd 226168

Free Porn Videos Xxx Movies Pussy Porn 3704 ryushare uploaded keep2share

Free Porn Videos Xxx Movies Pussy Porn 3704

proanstar sex video HD danlowd ryushare uploaded keep2share

proanstar sex video HD danlowd

Fresh Teen Videos 224791 ryushare uploaded keep2share

Fresh Teen Videos 224791

Report broken links / Post a comment

You must be logged in to post a comment.



General\r\nComplete name : D:hd pornstars teens ryushare.com uploaded.net keep2share.cc fileom.com streamcloud.eu allmyvideos.net ul.to download porn movies clips Craving_For_Sex_HD1080.mp4\r\nFormat : MPEG-4\r\nFormat profile : Base Media\r\nCodec ID : isom\r\nFile size : 533 MiB\r\nDuration : 16mn 23s\r\nOverall bit rate mode : Variable\r\nOverall bit rate : 4 545 Kbps\r\nEncoded date : UTC 1970-01-01 00:00:00\r\nTagged date : UTC 1970-01-01 00:00:00\r\nWriting application : Lavf52.64.2\r\n\r\nVideo\r\nID : 1\r\nFormat : AVC\r\nFormat/Info : Advanced Video Codec\r\nFormat profile : [email protected]\r\nFormat settings, CABAC : Yes\r\nFormat settings, ReFrames : 2 frames\r\nCodec ID : avc1\r\nCodec ID/Info : Advanced Video Coding\r\nDuration : 16mn 23s\r\nBit rate : 4 389 Kbps\r\nWidth : 1 920 pixels\r\nHeight : 1 080 pixels\r\nDisplay aspect ratio : 16:9\r\nFrame rate mode : Constant\r\nFrame rate : 25.000 fps\r\nColor space : YUV\r\nChroma subsampling : 4:2:0\r\nBit depth : 8 bits\r\nScan type : Progressive\r\nBits/(Pixel*Frame) : 0.085\r\nStream size : 514 MiB (97%)\r\nWriting library : x264 core 102 r1666 d058f37\r\nEncoding settings : cabac=1 / ref=2 / deblock=1:0:0 / analyse=0x3:0x113 / me=hex / subme=6 / psy=1 / psy_rd=1.00:0.00 / mixed_ref=0 / me_range=16 / chroma_me=1 / trellis=0 / 8x8dct=1 / cqm=0 / deadzone=21,11 / fast_pskip=1 / chroma_qp_offset=-2 / threads=24 / sliced_threads=0 / nr=0 / decimate=1 / interlaced=0 / constrained_intra=0 / bframes=3 / b_pyramid=0 / b_adapt=1 / b_bias=0 / direct=3 / weightb=1 / open_gop=0 / weightp=2 / keyint=250 / keyint_min=25 / scenecut=40 / intra_refresh=0 / rc_lookahead=40 / rc=crf / mbtree=1 / crf=20.0 / qcomp=0.60 / qpmin=10 / qpmax=51 / qpstep=4 / ip_ratio=1.41 / aq=1:1.00\r\nEncoded date : UTC 1970-01-01 00:00:00\r\nTagged date : UTC 1970-01-01 00:00:00\r\n\r\nAudio\r\nID : 2\r\nFormat : AAC\r\nFormat/Info : Advanced Audio Codec\r\nFormat profile : LC\r\nCodec ID : 40\r\nDuration : 16mn 23s\r\nBit rate mode : Variable\r\nBit rate : 151 Kbps\r\nChannel(s) : 2 channels\r\nChannel positions : Front: L R\r\nSampling rate : 44.1 KHz\r\nCompression mode : Lossy\r\nStream size : 17.7 MiB (3%)\r\nEncoded date : UTC 1970-01-01 00:00:00\r\nTagged date : UTC 1970-01-01 00:00:00\r\n\r\n UPLOADED / RYUSHARE / FILEOM / KEEP2SHARE\r\n\r\nhd pornstars teens ryushare.com uploaded.net keep2share.cc fileom.com streamcloud.eu allmyvideos.net ul.to download porn movies clips \r\n\r\n