Free Porn Videos Xxx Movies Pussy Porn 3666

Teen Tits Tube, Young Girls Porn Videos 3672Young XXX Tube Videos 3662

Posted in HD Porn, Pornstar, Sex Movies, Teen | 115665 Views |


Rate this girl !!!




\r\n\r\n\r\n8.jpeg



DOWNLOAD

Keep2share.cc - Uploaded.net - Openload.co - Rapidu.net


http://ryushare.com/pndjz7gagydu/RSGNDRmr.mp4
http://ul.to/iw3we5tw/RSGNDRmr.mp4
http://fileom.com/z6z9v61fo839/RSGNDRmr.mp4.html
http://k2s.cc/file/79508a4e00ef5/RSGNDRmr.mp4


Premium here:
uploaded.net
keep2share.cc
rapidu.net.cc


Teens related to Free Porn Videos Xxx Movies Pussy Porn 3666


SexArt.com Ivana Sugar & Vanda Lust – Rain ryushare uploaded keep2share

SexArt.com Ivana Sugar & Vanda Lust – Rain

8 Teen XXX – Teen Sex 1807 ryushare uploaded keep2share

8 Teen XXX – Teen Sex 1807

Hot Teen Sex HD videos 1679 ryushare uploaded keep2share

Hot Teen Sex HD videos 1679

Young teens tube hot girls free porn video 2142 ryushare uploaded keep2share

Young teens tube hot girls free porn video 2142

Wow porn tube movies 4986 ryushare uploaded keep2share

Wow porn tube movies 4986

Dani Jensen – NaughtyAmerica ryushare uploaded keep2share

Dani Jensen – NaughtyAmerica

Free Young Porn Videos XXX Teen Porn 225792 ryushare uploaded keep2share

Free Young Porn Videos XXX Teen Porn 225792

Teena Dolly – Teena Lipoldino 140 Movies ryushare uploaded keep2share

Teena Dolly – Teena Lipoldino 140 Movies

Porno movies young teens lesbian 224977 ryushare uploaded keep2share

Porno movies young teens lesbian 224977

yang garls boy xxx ryushare uploaded keep2share

yang garls boy xxx

HD Porn Teen Sex Videos 224362 ryushare uploaded keep2share

HD Porn Teen Sex Videos 224362

Wow Girls Porn Clips download 5142 ryushare uploaded keep2share

Wow Girls Porn Clips download 5142

Small girls and boys porn 2528 ryushare uploaded keep2share

Small girls and boys porn 2528

College Teen Sex 1921 ryushare uploaded keep2share

College Teen Sex 1921

Jenny Simons – At The Right Time ryushare uploaded keep2share

Jenny Simons – At The Right Time

Delicious tiny teen ryushare uploaded keep2share

Delicious tiny teen

Free Young Porn Videos XXX Teen Porn 4185 ryushare uploaded keep2share

Free Young Porn Videos XXX Teen Porn 4185

xvideo hd movies free download 226781 ryushare uploaded keep2share

xvideo hd movies free download 226781

xxx 18porn sex ryushare uploaded keep2share

xxx 18porn sex

hi sex movies download in hq 226295 ryushare uploaded keep2share

hi sex movies download in hq 226295

www ART xvldeocom ryushare uploaded keep2share

www ART xvldeocom

Teen Porn XXX Tube 225246 ryushare uploaded keep2share

Teen Porn XXX Tube 225246

Small girls and boys porn 2683 ryushare uploaded keep2share

Small girls and boys porn 2683

Uploaded net porn 3849 ryushare uploaded keep2share

Uploaded net porn 3849

teenporno mp4 ryushare uploaded keep2share

teenporno mp4

Model porno sex 4345 ryushare uploaded keep2share

Model porno sex 4345

Beautiful small tits ryushare uploaded keep2share

Beautiful small tits

Beautiful small tits blonde ryushare uploaded keep2share

Beautiful small tits blonde

Porn massage young brunette ryushare uploaded keep2share

Porn massage young brunette

Good Teen Tube Sexy Young Naked Girls Movies 5521 ryushare uploaded keep2share

Good Teen Tube Sexy Young Naked Girls Movies 5521

Amy – Pick Up Fuck With Blonde In Hot Lingerie ryushare uploaded keep2share

Amy – Pick Up Fuck With Blonde In Hot Lingerie

Denise Sky ryushare uploaded keep2share

Denise Sky

Xxx fuka in 226353 ryushare uploaded keep2share

Xxx fuka in 226353

Teens in Porno young porn videos and free teen sex 1672 ryushare uploaded keep2share

Teens in Porno young porn videos and free teen sex 1672

1080p pornstar 226032 ryushare uploaded keep2share

1080p pornstar 226032

Report broken links / Post a comment

You must be logged in to post a comment.



General\r\nComplete name : D:hd pornstars teens ryushare.com uploaded.net keep2share.cc fileom.com download porn movies clips RSGNDRmr.mp4\r\nFormat : MPEG-4\r\nFormat profile : Base Media\r\nCodec ID : isom\r\nFile size : 526 MiB\r\nDuration : 20mn 22s\r\nOverall bit rate : 3 610 Kbps\r\nWriting application : Lavf55.12.100\r\n\r\nVideo\r\nID : 1\r\nFormat : AVC\r\nFormat/Info : Advanced Video Codec\r\nFormat profile : [email protected]\r\nFormat settings, CABAC : No\r\nFormat settings, ReFrames : 5 frames\r\nCodec ID : avc1\r\nCodec ID/Info : Advanced Video Coding\r\nDuration : 20mn 22s\r\nBit rate : 3 509 Kbps\r\nWidth : 1 280 pixels\r\nHeight : 720 pixels\r\nDisplay aspect ratio : 16:9\r\nFrame rate mode : Constant\r\nFrame rate : 23.976 fps\r\nColor space : YUV\r\nChroma subsampling : 4:2:0\r\nBit depth : 8 bits\r\nScan type : Progressive\r\nBits/(Pixel*Frame) : 0.159\r\nStream size : 512 MiB (97%)\r\nWriting library : x264 core 138 r2358 9e941d1\r\nEncoding settings : cabac=0 / ref=5 / deblock=1:0:0 / analyse=0x1:0x111 / me=umh / subme=8 / psy=1 / psy_rd=1.00:0.00 / mixed_ref=1 / me_range=16 / chroma_me=1 / trellis=1 / 8x8dct=0 / cqm=0 / deadzone=21,11 / fast_pskip=1 / chroma_qp_offset=-2 / threads=2 / lookahead_threads=1 / sliced_threads=0 / nr=0 / decimate=1 / interlaced=0 / bluray_compat=0 / constrained_intra=0 / bframes=0 / weightp=0 / keyint=250 / keyint_min=23 / scenecut=40 / intra_refresh=0 / rc_lookahead=50 / rc=crf / mbtree=1 / crf=18.0 / qcomp=0.60 / qpmin=0 / qpmax=69 / qpstep=4 / ip_ratio=1.40 / aq=1:1.00\r\nLanguage : English\r\n\r\nAudio\r\nID : 2\r\nFormat : AAC\r\nFormat/Info : Advanced Audio Codec\r\nFormat profile : LC\r\nCodec ID : 40\r\nDuration : 20mn 22s\r\nBit rate mode : Constant\r\nBit rate : 96.0 Kbps\r\nChannel(s) : 2 channels\r\nChannel positions : Front: L R\r\nSampling rate : 48.0 KHz\r\nCompression mode : Lossy\r\nStream size : 14.0 MiB (3%)\r\nLanguage : English\r\n\r\nhd pornstars teens ryushare.com uploaded.net keep2share.cc fileom.com download porn movies clips