Fucking with young athlete

Skinny brunettePorn with gorgeous redhead

Posted in Amateur, HD Porn, Sex Movies, Teen | 13592 Views |


Rate this girl !!!




\r\n\r\nhttp://img101.imagetwist.com/i/05142/nvzidoiuuomf.jpeg\r\n\r\nFucking with young athlete\r\n\r\n Link(946 Mb||26:15||1280*720||WMV) \r\n\r\n 



DOWNLOAD

Keep2share.cc - Uploaded.net - Openload.co - Rapidu.net


http://keep2share.cc/file/52e5e8936c087
http://ryushare.com/a0rel2dihmdy/DRCHRMry.rar
http://ul.to/zne8np7w


Premium here:
uploaded.net
keep2share.cc
rapidu.net.cc

Teens related to Fucking with young athlete


Wow girls hd porn teens 223846 ryushare uploaded keep2share

Wow girls hd porn teens 223846

8teen xxx pcHD com ryushare uploaded keep2share

8teen xxx pcHD com

sex hd video hai quality downlard 226504 ryushare uploaded keep2share

sex hd video hai quality downlard 226504

Sandy Sweet Massage ryushare uploaded keep2share

Sandy Sweet Massage

Hot Teen Sex 2379 ryushare uploaded keep2share

Hot Teen Sex 2379

Jessie Volt, Aysha Rouge (K Two Teasing Tongues 13) AB ryushare uploaded keep2share

Jessie Volt, Aysha Rouge (K Two Teasing Tongues 13) AB

Xxxsexvidoa comhd ryushare uploaded keep2share

Xxxsexvidoa comhd

Girls sex art hd teens videos 224203 ryushare uploaded keep2share

Girls sex art hd teens videos 224203

HD Porn Teen Sex Videos 225413 ryushare uploaded keep2share

HD Porn Teen Sex Videos 225413

Teen Sex Movies 224085 ryushare uploaded keep2share

Teen Sex Movies 224085

Young XXX Tube Videos 225200 ryushare uploaded keep2share

Young XXX Tube Videos 225200

XXX young porn sex 3841 ryushare uploaded keep2share

XXX young porn sex 3841

xxx photos HD MP4/ ryushare uploaded keep2share

xxx photos HD MP4/

yang garls boy xxx ryushare uploaded keep2share

yang garls boy xxx

mania teennporn 226597 ryushare uploaded keep2share

mania teennporn 226597

Teen porn xxx 223828 ryushare uploaded keep2share

Teen porn xxx 223828

Brandy Naughty – First Time Auditions ryushare uploaded keep2share

Brandy Naughty – First Time Auditions

Teen Porn XXX Tube 225059 ryushare uploaded keep2share

Teen Porn XXX Tube 225059

www 18 videos lk ryushare uploaded keep2share

www 18 videos lk

alyona klara lesbian 226112 ryushare uploaded keep2share

alyona klara lesbian 226112

Porn teen hd downloads 224517 ryushare uploaded keep2share

Porn teen hd downloads 224517

Fresh Teen Videos 4156 ryushare uploaded keep2share

Fresh Teen Videos 4156

Riley Reid – Forget Me Not ryushare uploaded keep2share

Riley Reid – Forget Me Not

HDMassagePorn – Gianna – Sporty Blonde In Hot HD Porn ryushare uploaded keep2share

HDMassagePorn – Gianna – Sporty Blonde In Hot HD Porn

Orgy with pornstar young blonde teen ryushare uploaded keep2share

Orgy with pornstar young blonde teen

High Definition Movies on HD Teen Porn XXX Tube 2700 ryushare uploaded keep2share

High Definition Movies on HD Teen Porn XXX Tube 2700

www xxx18yeras movie hot 226733 ryushare uploaded keep2share

www xxx18yeras movie hot 226733

Porn teen hd downloads 224289 ryushare uploaded keep2share

Porn teen hd downloads 224289

Free High Quality Sex Movies 4274 ryushare uploaded keep2share

Free High Quality Sex Movies 4274

Alyona – No Mercy For Your Ass ryushare uploaded keep2share

Alyona – No Mercy For Your Ass

Teenage Fuck Clips 4687 ryushare uploaded keep2share

Teenage Fuck Clips 4687

Nubiles.net Olivia Devine – Outdoor Orgasm ryushare uploaded keep2share

Nubiles.net Olivia Devine – Outdoor Orgasm

www xxxnx hd porn video ryushare uploaded keep2share

www xxxnx hd porn video

Kiara Lord – Window ryushare uploaded keep2share

Kiara Lord – Window

Sexart  – Carla Cox – The last night (Orgy) ryushare uploaded keep2share

Sexart – Carla Cox – The last night (Orgy)

Report broken links / Post a comment

You must be logged in to post a comment.



General\r\nComplete name : D:Fucking with young athleteDRCHRMryDRCHRMry.wmv\r\nFormat : Windows Media\r\nFile size : 946 MiB\r\nDuration : 26mn 15s\r\nOverall bit rate mode : Constant\r\nOverall bit rate : 5 037 Kbps\r\nMaximum Overall bit rate : 5 290 Kbps\r\nPerformer : Royal-Cash.com\r\nEncoded date : UTC 2014-01-10 22:39:55.841\r\nCopyright : Royal-Cash.com\r\n\r\nVideo\r\nID : 2\r\nFormat : VC-1\r\nFormat profile : [email protected]\r\nCodec ID : WMV3\r\nCodec ID/Info : Windows Media Video 9\r\nCodec ID/Hint : WMV3\r\nDescription of the codec : Windows Media Video 9 - Professional\r\nDuration : 26mn 15s\r\nBit rate mode : Constant\r\nBit rate : 5 120 Kbps\r\nWidth : 1 280 pixels\r\nHeight : 720 pixels\r\nDisplay aspect ratio : 16:9\r\nFrame rate : 25.000 fps\r\nColor space : YUV\r\nChroma subsampling : 4:2:0\r\nBit depth : 8 bits\r\nScan type : Progressive\r\nCompression mode : Lossy\r\nBits/(Pixel*Frame) : 0.222\r\nStream size : 962 MiB\r\nLanguage : Russian\r\nNumberOfFrames : 39378\r\n\r\nAudio\r\nID : 1\r\nFormat : WMA\r\nFormat version : Version 2\r\nCodec ID : 161\r\nCodec ID/Info : Windows Media Audio\r\nDescription of the codec : Windows Media Audio 9.2 - 128 kbps, 44 kHz, stereo 1-pass CBR\r\nDuration : 26mn 15s\r\nBit rate mode : Constant\r\nBit rate : 128 Kbps\r\nChannel(s) : 2 channels\r\nSampling rate : 44.1 KHz\r\nBit depth : 16 bits\r\nStream size : 24.0 MiB (3%)\r\nLanguage : Russian\r\nNumberOfFrames : 4240\r\n\r\n