FuckStudies.com El Storm

21Naturals.com Chirsten, Inner beauty[AbbyWinters.com] Editors Choice – October 2012 Squirting

Posted in HD Porn, Pornstar, Sex Movies, Teen | 10243 Views |


Rate this girl !!!




cover\r\n\r\n1920x1080p / MP4 / 1.22 GB\r\n

[FuckStudies.com] El Storm

\r\nSCREENSHOTS:\r\n\r\nscreens



DOWNLOAD

Keep2share.cc - Uploaded.net - Openload.co - Rapidu.net



http://ul.to/6tysmbto/3l.St0rm.FS.mp4
http://played.to/1vc3i4kei5pa


Premium here:
uploaded.net
keep2share.cc
rapidu.net.cc


Teens related to FuckStudies.com El Storm


MyDirtySecret – All Sex, Amateur, Creampie, 720p ryushare uploaded keep2share

MyDirtySecret – All Sex, Amateur, Creampie, 720p

Hd young videos 5293 ryushare uploaded keep2share

Hd young videos 5293

Porn HD Sex HD Teen Sex 1200 ryushare uploaded keep2share

Porn HD Sex HD Teen Sex 1200

College Teen Sex 224724 ryushare uploaded keep2share

College Teen Sex 224724

Wow girls downloads hd 224420 ryushare uploaded keep2share

Wow girls downloads hd 224420

Small girls and boys porn 3443 ryushare uploaded keep2share

Small girls and boys porn 3443

Alysa Gap & Beata Undine – Bounty Of Meat ryushare uploaded keep2share

Alysa Gap & Beata Undine – Bounty Of Meat

GirlsDoPorn E230 18 Years Old ryushare uploaded keep2share

GirlsDoPorn E230 18 Years Old

Teen Sex Movies Young Porn Tube Vids 224048 ryushare uploaded keep2share

Teen Sex Movies Young Porn Tube Vids 224048

Teen 18 Porn XXX Clips Naked 4357 ryushare uploaded keep2share

Teen 18 Porn XXX Clips Naked 4357

Milagres – A Cool Tool For Me ryushare uploaded keep2share

Milagres – A Cool Tool For Me

Free High Quality Sex Movies 225182 ryushare uploaded keep2share

Free High Quality Sex Movies 225182

Tube Young Sex 224693 ryushare uploaded keep2share

Tube Young Sex 224693

Young xxx 224169 ryushare uploaded keep2share

Young xxx 224169

Uploaded net porn XXX 5126 ryushare uploaded keep2share

Uploaded net porn XXX 5126

www xxx hd ht vidoy com 226150 ryushare uploaded keep2share

www xxx hd ht vidoy com 226150

teen xxx video hd dowalona ryushare uploaded keep2share

teen xxx video hd dowalona

Free Porn Videos Xxx Movies Pussy Porn 1549 ryushare uploaded keep2share

Free Porn Videos Xxx Movies Pussy Porn 1549

Young Virgin Pussy Teen Fuck Tube 4366 ryushare uploaded keep2share

Young Virgin Pussy Teen Fuck Tube 4366

download porn in mkv format free 226124 ryushare uploaded keep2share

download porn in mkv format free 226124

hd porn moives for pc ryushare uploaded keep2share

hd porn moives for pc

HD porn uploaded 2790 ryushare uploaded keep2share

HD porn uploaded 2790

Watch Teen Sex Videos HD 3515 ryushare uploaded keep2share

Watch Teen Sex Videos HD 3515

www sex video pc porn 226242 ryushare uploaded keep2share

www sex video pc porn 226242

Hot Teen Sex 1726 ryushare uploaded keep2share

Hot Teen Sex 1726

Squirters Juice Bar Carla Cox ryushare uploaded keep2share

Squirters Juice Bar Carla Cox

Nancey – Dreams Come To Life ryushare uploaded keep2share

Nancey – Dreams Come To Life

Uploaded net porn XXX 225478 ryushare uploaded keep2share

Uploaded net porn XXX 225478

sex videos in mkv free download 226464 ryushare uploaded keep2share

sex videos in mkv free download 226464

xxx fuking feast times video hd dawunlod 226104 ryushare uploaded keep2share

xxx fuking feast times video hd dawunlod 226104

Wow girls downloads hd 224506 ryushare uploaded keep2share

Wow girls downloads hd 224506

Hd xxxvidoes download com 226192 ryushare uploaded keep2share

Hd xxxvidoes download com 226192

Wow Girls Porn Clips download 224666 ryushare uploaded keep2share

Wow Girls Porn Clips download 224666

Teen Sex Movies Young Porn Tube Vids 224610 ryushare uploaded keep2share

Teen Sex Movies Young Porn Tube Vids 224610

Hardcore sex videos in the high definition quality 223959 ryushare uploaded keep2share

Hardcore sex videos in the high definition quality 223959

Report broken links / Post a comment

You must be logged in to post a comment.



[FuckStudies.com] El Storm \r\nGeneral\r\nComplete name : J:HD Teens Movies Young Downloads Online Clips Scenes [FuckStudies.com] El Storm 3l.St0rm.FS.mp4\r\nFormat : MPEG-4\r\nFormat profile : Base Media\r\nCodec ID : isom\r\nFile size : 1.22 GiB\r\nDuration : 21mn 22s\r\nOverall bit rate : 8 152 Kbps\r\nMovie name : RARBG.COM - FuckStudies.14.10.03.El.Storm.XXX.1080p.MP4-KTR\r\nPerformer : Royal-Cash.com\r\nComposer : Royal-Cash.com\r\nWriting application : Lavf55.48.100\r\nCopyright : Royal-Cash.com\r\nComment : RARBG.COM - FuckStudies.14.10.03.El.Storm.XXX.1080p.MP4-KTR\r\n\r\nVideo\r\nID : 1\r\nFormat : AVC\r\nFormat/Info : Advanced Video Codec\r\nFormat profile : [email protected]\r\nFormat settings, CABAC : Yes\r\nFormat settings, ReFrames : 3 frames\r\nFormat settings, GOP : M=1, N=100\r\nCodec ID : avc1\r\nCodec ID/Info : Advanced Video Coding\r\nDuration : 21mn 22s\r\nBit rate : 8 000 Kbps\r\nWidth : 1 920 pixels\r\nHeight : 1 080 pixels\r\nDisplay aspect ratio : 16:9\r\nFrame rate mode : Constant\r\nFrame rate : 25.000 fps\r\nColor space : YUV\r\nChroma subsampling : 4:2:0\r\nBit depth : 8 bits\r\nScan type : Progressive\r\nBits/(Pixel*Frame) : 0.154\r\nStream size : 1.20 GiB (98%)\r\nWriting library : x264 core 1191.0\r\nEncoding settings : cabac=1 / ref=3 / deblock=1:0:0 / analyse=0x3:0x113 / me=hex / subme=7 / psy=1 / psy_rd=1.00:0.00 / mixed_ref=1 / me_range=16 / chroma_me=1 / trellis=1 / 8x8dct=1 / cqm=0 / deadzone=21,11 / fast_pskip=1 / chroma_qp_offset=-2 / threads=24 / sliced_threads=0 / nr=0 / decimate=1 / interlaced=0 / bluray_compat=0 / constrained_intra=0 / bframes=0 / weightp=2 / keyint=100 / keyint_min=10 / scenecut=40 / intra_refresh=0 / rc_lookahead=40 / rc=abr / mbtree=1 / bitrate=8000 / ratetol=1.0 / qcomp=0.60 / qpmin=0 / qpmax=69 / qpstep=4 / ip_ratio=1.40 / aq=1:1.00\r\n\r\nAudio\r\nID : 2\r\nFormat : AAC\r\nFormat/Info : Advanced Audio Codec\r\nFormat profile : LC\r\nCodec ID : 40\r\nDuration : 21mn 22s\r\nBit rate mode : Constant\r\nBit rate : 124 Kbps\r\nChannel count : 2 channels\r\nChannel positions : Front: L R\r\nSampling rate : 44.1 KHz\r\nCompression mode : Lossy\r\nStream size : 18.9 MiB (2%)\r\n\r\n