Good Teen Tube Sexy Young Naked Girls Movies 1427

Young teens tube hot girls free porn video 1430HD Porn Video 1421

Posted in Amateur, HD Porn, Sex Movies, Teen | 5253 Views |


Rate this girl !!!




\r\n\r\nhttp://img102.imagetwist.com/i/05211/4ixgt21i6rcf.jpeg\r\n\r\n Link(679 Mb||30:19||720*576||WMV)



DOWNLOAD

Keep2share.cc - Uploaded.net - Openload.co - Rapidu.net


http://ryushare.com/h8vc0fuhcy4h/TNSMGHnh.rar
http://ul.to/2gs8anuu
http://keep2share.cc/file/5266f8b82f727



Premium here:
uploaded.net
keep2share.cc
rapidu.net.cc


Teens related to Good Teen Tube Sexy Young Naked Girls Movies 1427


caprice videos xxx ryushare uploaded keep2share

caprice videos xxx

download free xxx sex hd 226387 ryushare uploaded keep2share

download free xxx sex hd 226387

Xxx fuka in 226353 ryushare uploaded keep2share

Xxx fuka in 226353

The best Teen sex 225079 ryushare uploaded keep2share

The best Teen sex 225079

Teen Tits Tube, Young Girls Porn Videos 224467 ryushare uploaded keep2share

Teen Tits Tube, Young Girls Porn Videos 224467

21Naturals Sweet Cat ryushare uploaded keep2share

21Naturals Sweet Cat

Wow porn hd downloads 224563 ryushare uploaded keep2share

Wow porn hd downloads 224563

HD Porn Teen Sex Videos 3959 ryushare uploaded keep2share

HD Porn Teen Sex Videos 3959

Hd quality – Teen sex video 3819 ryushare uploaded keep2share

Hd quality – Teen sex video 3819

hd18sex x videos com ryushare uploaded keep2share

hd18sex x videos com

Hd young videos 225308 ryushare uploaded keep2share

Hd young videos 225308

Summer Breeze and Victoria Tiffani ryushare uploaded keep2share

Summer Breeze and Victoria Tiffani

Klixen – K Fantasies of a Piano Player ryushare uploaded keep2share

Klixen – K Fantasies of a Piano Player

Teens sex mania 5553 ryushare uploaded keep2share

Teens sex mania 5553

Teen 18 Porn XXX Clips Naked 3465 ryushare uploaded keep2share

Teen 18 Porn XXX Clips Naked 3465

HD Teen Sex Tube 224188 ryushare uploaded keep2share

HD Teen Sex Tube 224188

Wow Girls Porn Clips download 224301 ryushare uploaded keep2share

Wow Girls Porn Clips download 224301

HD Teen Sex Tube 225351 ryushare uploaded keep2share

HD Teen Sex Tube 225351

Wow porn hd downloads 224274 ryushare uploaded keep2share

Wow porn hd downloads 224274

Young XXX Tube Videos 4107 ryushare uploaded keep2share

Young XXX Tube Videos 4107

Young 720p hd porn 3975 ryushare uploaded keep2share

Young 720p hd porn 3975

Porn party teen girls 224803 ryushare uploaded keep2share

Porn party teen girls 224803

Sweet Teen Porn – Young Porn Videos 1653 ryushare uploaded keep2share

Sweet Teen Porn – Young Porn Videos 1653

hi sex movies download in hq 226295 ryushare uploaded keep2share

hi sex movies download in hq 226295

Good Teen Tube Sexy Young Naked Girls Movies 224389 ryushare uploaded keep2share

Good Teen Tube Sexy Young Naked Girls Movies 224389

Janette – Today Was Amazing ryushare uploaded keep2share

Janette – Today Was Amazing

PORNOZZ FULL 720 226768 ryushare uploaded keep2share

PORNOZZ FULL 720 226768

Sweet Teen Porn – Young Porn Videos 3794 ryushare uploaded keep2share

Sweet Teen Porn – Young Porn Videos 3794

Hot download sex girls movies 224263 ryushare uploaded keep2share

Hot download sex girls movies 224263

Hardcore Sex Hub 3916 ryushare uploaded keep2share

Hardcore Sex Hub 3916

Girls do porn downloads 4056 ryushare uploaded keep2share

Girls do porn downloads 4056

Free High Quality Sex Movies 1901 ryushare uploaded keep2share

Free High Quality Sex Movies 1901

pc free porn hd ryushare uploaded keep2share

pc free porn hd

xxx video hd romantik downlod ryushare uploaded keep2share

xxx video hd romantik downlod

Young teens tube hot girls free porn video 2828 ryushare uploaded keep2share

Young teens tube hot girls free porn video 2828

Report broken links / Post a comment

You must be logged in to post a comment.



General\r\nComplete name : D:Porn Direct Download Uploaded Ryushare Keep2shareTNSMGHnhTNSMGHnh.wmv\r\nFormat : Windows Media\r\nFile size : 679 MiB\r\nDuration : 30mn 18s\r\nOverall bit rate mode : Constant\r\nOverall bit rate : 3 131 Kbps\r\nMaximum Overall bit rate : 3 147 Kbps\r\nPerformer : Royal-Cash.com\r\nEncoded date : UTC 2009-08-08 12:49:41.616\r\nCopyright : Royal-Cash.com\r\n\r\nVideo\r\nID : 2\r\nFormat : VC-1\r\nFormat profile : [email protected]\r\nCodec ID : WMV3\r\nCodec ID/Info : Windows Media Video 9\r\nCodec ID/Hint : WMV3\r\nDescription of the codec : Windows Media Video 9 - Professional\r\nDuration : 30mn 18s\r\nBit rate mode : Constant\r\nBit rate : 3 072 Kbps\r\nWidth : 720 pixels\r\nHeight : 576 pixels\r\nDisplay aspect ratio : 5:4\r\nFrame rate : 29.970 fps\r\nStandard : PAL\r\nColor space : YUV\r\nChroma subsampling : 4:2:0\r\nBit depth : 8 bits\r\nScan type : Progressive\r\nCompression mode : Lossy\r\nBits/(Pixel*Frame) : 0.247\r\nStream size : 666 MiB (98%)\r\nLanguage : English (US)\r\nNumberOfFrames : 54475\r\n\r\nAudio\r\nID : 1\r\nFormat : WMA\r\nFormat version : Version 2\r\nCodec ID : 161\r\nCodec ID/Info : Windows Media Audio\r\nDescription of the codec : Windows Media Audio 9.1 - 48 kbps, 32 kHz, stereo 1-pass CBR\r\nDuration : 30mn 18s\r\nBit rate mode : Constant\r\nBit rate : 48.0 Kbps\r\nChannel(s) : 2 channels\r\nSampling rate : 32.0 KHz\r\nBit depth : 16 bits\r\nStream size : 10.4 MiB (2%)\r\nLanguage : English (US)\r\nNumberOfFrames : 4739\r\n\r\n