Grace Hot Teen

Casting Vikki 1080pNomi - Bikini Land

Posted in HD Porn, Pornstar, Sex Movies, Solo, Teen | 7171 Views |


Rate this girl !!!




Grace Hot Teen\r\n\r\nGrace Hot Teen\r\n\r\nGrace Hot Teen\r\n\r\n\r\nFile: Grace solo.wmv\r\nSize: 451921619 bytes (430.99 MiB), duration: 00:11:41, avg.bitrate: 5157 kb/s\r\nAudio: wmav2, 44100 Hz, 2 channels, s16, 128 kb/s (eng)\r\nVideo: wmv3, yuv420p, 1280×720, 5000 kb/s, 25.00 fps(r) (eng)\r\n\r\n\r\n\r\n



DOWNLOAD

Keep2share.cc - Uploaded.net - Openload.co - Rapidu.net


http://ryushare.com/52dadf29139e/Gr4c3.s0l0.rar
http://keep2share.cc/file/5276fe07ee8ee
http://ul.to/f0d9d1jp


Premium here:
uploaded.net
keep2share.cc
rapidu.net.cc

Teens related to Grace Hot Teen


Young teens tube hot girls free porn video 1947 ryushare uploaded keep2share

Young teens tube hot girls free porn video 1947

Young XXX Tube Videos 4335 ryushare uploaded keep2share

Young XXX Tube Videos 4335

Young Sex Movies 225490 ryushare uploaded keep2share

Young Sex Movies 225490

Free Young Porn Videos XXX Teen Porn 3871 ryushare uploaded keep2share

Free Young Porn Videos XXX Teen Porn 3871

sexxxxxxx mp 3 xxxhd 226194 ryushare uploaded keep2share

sexxxxxxx mp 3 xxxhd 226194

Hd young videos 3854 ryushare uploaded keep2share

Hd young videos 3854

Girls do porn in HD 223747 ryushare uploaded keep2share

Girls do porn in HD 223747

HD Porn Videos 224706 ryushare uploaded keep2share

HD Porn Videos 224706

Model porno sex 2822 ryushare uploaded keep2share

Model porno sex 2822

teen porn white skin 226106 ryushare uploaded keep2share

teen porn white skin 226106

www xxxx 18teen grils ryushare uploaded keep2share

www xxxx 18teen grils

Beautiful Teen Providing Ass Rimming To Her Boyfriend This Time ryushare uploaded keep2share

Beautiful Teen Providing Ass Rimming To Her Boyfriend This Time

antartika poeno sex 226048 ryushare uploaded keep2share

antartika poeno sex 226048

Anjelica – My Inner Feelings ryushare uploaded keep2share

Anjelica – My Inner Feelings

Backyard Amateurs (3 scenes) ryushare uploaded keep2share

Backyard Amateurs (3 scenes)

Amateur Teen Sex 5388 ryushare uploaded keep2share

Amateur Teen Sex 5388

College Teen Sex 6536 ryushare uploaded keep2share

College Teen Sex 6536

Free Young Porn Videos XXX Teen Porn 4185 ryushare uploaded keep2share

Free Young Porn Videos XXX Teen Porn 4185

russia hd movies porno 226214 ryushare uploaded keep2share

russia hd movies porno 226214

High Definition Movies on HD Teen Porn XXX Tube 1192 ryushare uploaded keep2share

High Definition Movies on HD Teen Porn XXX Tube 1192

Teen xxx sex hd 224286 ryushare uploaded keep2share

Teen xxx sex hd 224286

Hot Teen Sex HD videos 225047 ryushare uploaded keep2share

Hot Teen Sex HD videos 225047

Young teens tube hot girls free porn video 4952 ryushare uploaded keep2share

Young teens tube hot girls free porn video 4952

Kiki Vidis ryushare uploaded keep2share

Kiki Vidis

sexy full movies hd pron ryushare uploaded keep2share

sexy full movies hd pron

HD Teens Sex Tube Videos XxX 225345 ryushare uploaded keep2share

HD Teens Sex Tube Videos XxX 225345

21Natural hd teen free ryushare uploaded keep2share

21Natural hd teen free

Tina Blade, Marica Hase – Spurts of love ryushare uploaded keep2share

Tina Blade, Marica Hase – Spurts of love

www yes xxx hd downlads 226589 ryushare uploaded keep2share

www yes xxx hd downlads 226589

Teen Sex Videos Tube Movies 225164 ryushare uploaded keep2share

Teen Sex Videos Tube Movies 225164

Girls sex art hd teens videos 5549 ryushare uploaded keep2share

Girls sex art hd teens videos 5549

HQ Sex Movies Download 5339 ryushare uploaded keep2share

HQ Sex Movies Download 5339

HD Porn Teen Sex Videos 4043 ryushare uploaded keep2share

HD Porn Teen Sex Videos 4043

Free Teen Porn Videos at Teen Sex Tube XXX 5378 ryushare uploaded keep2share

Free Teen Porn Videos at Teen Sex Tube XXX 5378

Uploaded net porn 2517 ryushare uploaded keep2share

Uploaded net porn 2517

Report broken links / Post a comment

You must be logged in to post a comment.



General\r\nComplete name : H:HD TEENS PORN RYUSHARE UPLOADED KEEP2SHAREGrace solo.wmv\r\nFormat : Windows Media\r\nFile size : 431 MiB\r\nDuration : 11mn 41s\r\nOverall bit rate mode : Constant\r\nOverall bit rate : 5 150 Kbps\r\nMaximum Overall bit rate : 5 169 Kbps\r\nEncoded date : UTC 2011-08-21 21:51:08.629\r\n\r\nVideo\r\nID : 1\r\nFormat : VC-1\r\nFormat profile : [email protected]\r\nCodec ID : WMV3\r\nCodec ID/Info : Windows Media Video 9\r\nCodec ID/Hint : WMV3\r\nDescription of the codec : Windows Media Video 9 - Professional\r\nDuration : 11mn 41s\r\nBit rate mode : Constant\r\nBit rate : 5 000 Kbps\r\nWidth : 1 280 pixels\r\nHeight : 720 pixels\r\nDisplay aspect ratio : 16:9\r\nFrame rate : 25.000 fps\r\nBit depth : 8 bits\r\nScan type : Progressive\r\nCompression mode : Lossy\r\nBits/(Pixel*Frame) : 0.217\r\nStream size : 418 MiB (97%)\r\nLanguage : English (GB)\r\n\r\nAudio\r\nID : 2\r\nFormat : WMA\r\nFormat version : Version 2\r\nCodec ID : 161\r\nCodec ID/Info : Windows Media Audio\r\nDescription of the codec : Windows Media Audio 9.2 - 128 kbps, 44 kHz, stereo 1-pass CBR\r\nDuration : 11mn 41s\r\nBit rate mode : Constant\r\nBit rate : 128 Kbps\r\nChannel(s) : 2 channels\r\nSampling rate : 44.1 KHz\r\nBit depth : 16 bits\r\nStream size : 10.7 MiB (2%)\r\nLanguage : English (GB)