Hardcore Sex Hub 1315

Nude Teens fucking hard 13208 Teen XXX - Teen Sex 1309

Posted in HD Porn, Pornstar, Sex Movies, Teen | 20686 Views |


Rate this girl !!!




\r\n\r\n\r\nhttp://img101.imagetwist.com/i/05192/u31jznhssy0g.jpeg\r\n\r\n Link(679 Mb||30:04||960*540||WMV)



DOWNLOAD

Keep2share.cc - Uploaded.net - Openload.co - Rapidu.net


http://ul.to/uewikt3f
http://ryushare.com/3qgk2p1gv5sj/TRNSGBby.rar
http://keep2share.cc/file/e85639a18f363


Premium here:
uploaded.net
keep2share.cc
rapidu.net.cc


Teens related to Hardcore Sex Hub 1315


HQ Sex Movies Download 224208 ryushare uploaded keep2share

HQ Sex Movies Download 224208

Teen porn movies 225157 ryushare uploaded keep2share

Teen porn movies 225157

Wow Porn Movies download) 224417 ryushare uploaded keep2share

Wow Porn Movies download) 224417

8 Teen XXX – Teen Sex 1309 ryushare uploaded keep2share

8 Teen XXX – Teen Sex 1309

Lola Taylor – Hardcore ryushare uploaded keep2share

Lola Taylor – Hardcore

HDMassagePorn – Gianna – Sporty Blonde In Hot HD Porn ryushare uploaded keep2share

HDMassagePorn – Gianna – Sporty Blonde In Hot HD Porn

Very hot brunette fucked ryushare uploaded keep2share

Very hot brunette fucked

Young XXX Tube Videos 3662 ryushare uploaded keep2share

Young XXX Tube Videos 3662

Tube xxx 223900 ryushare uploaded keep2share

Tube xxx 223900

Tube Young Sex 2186 ryushare uploaded keep2share

Tube Young Sex 2186

Teen Sex Movies Young Porn Tube Vids 3596 ryushare uploaded keep2share

Teen Sex Movies Young Porn Tube Vids 3596

Ibiza Party – Teens Sex ryushare uploaded keep2share

Ibiza Party – Teens Sex

Viola Paige – Intense Feelings ryushare uploaded keep2share

Viola Paige – Intense Feelings

Sex Teens porn movies 3015 ryushare uploaded keep2share

Sex Teens porn movies 3015

Teens in Porno young porn videos and free teen sex 5650 ryushare uploaded keep2share

Teens in Porno young porn videos and free teen sex 5650

Wow porn hd downloads 224283 ryushare uploaded keep2share

Wow porn hd downloads 224283

Teens in Porno young porn videos and free teen sex 225262 ryushare uploaded keep2share

Teens in Porno young porn videos and free teen sex 225262

Veiki & Liona – Two Is Better Then One ryushare uploaded keep2share

Veiki & Liona – Two Is Better Then One

[Castingcouch-X.com] Alex Tanner ryushare uploaded keep2share

[Castingcouch-X.com] Alex Tanner

Tube Young Sex 5676 ryushare uploaded keep2share

Tube Young Sex 5676

Castingcouch-X.com Megan Rain ryushare uploaded keep2share

Castingcouch-X.com Megan Rain

18OnlyGirls – Natasha – 25 Clips Video Pack ryushare uploaded keep2share

18OnlyGirls – Natasha – 25 Clips Video Pack

Teen Sex Videos Tube Movies 3941 ryushare uploaded keep2share

Teen Sex Videos Tube Movies 3941

Sweet Teen Porn – Young Porn Videos 224138 ryushare uploaded keep2share

Sweet Teen Porn – Young Porn Videos 224138

WowGirls.com Vanda – The pleasure Is All Mine ryushare uploaded keep2share

WowGirls.com Vanda – The pleasure Is All Mine

Teenage Fuck Clips 225869 ryushare uploaded keep2share

Teenage Fuck Clips 225869

pornstar fucked Connie carter 226393 ryushare uploaded keep2share

pornstar fucked Connie carter 226393

Rocco Orgy ryushare uploaded keep2share

Rocco Orgy

Sweet Teen Porn – Young Porn Videos 224239 ryushare uploaded keep2share

Sweet Teen Porn – Young Porn Videos 224239

Teenies Videos – Teen Porn, Teen Sex, XXX Free Videos 2114 ryushare uploaded keep2share

Teenies Videos – Teen Porn, Teen Sex, XXX Free Videos 2114

Yours Forever – Lisa ryushare uploaded keep2share

Yours Forever – Lisa

Porno movies young teens lesbian 5426 ryushare uploaded keep2share

Porno movies young teens lesbian 5426

download free highly compressed sex videos 226284 ryushare uploaded keep2share

download free highly compressed sex videos 226284

Wow Porn Teen Movies HD ryushare uploaded keep2share

Wow Porn Teen Movies HD

Wow porn tube movies 225396 ryushare uploaded keep2share

Wow porn tube movies 225396

Report broken links / Post a comment

You must be logged in to post a comment.



General\r\nComplete name : D:HD Teens Tube Download Porn Sex clips movies.xxxTRNSGBbyTRNSGBby.wmv\r\nFormat : Windows Media\r\nFile size : 679 MiB\r\nDuration : 30mn 4s\r\nOverall bit rate mode : Constant\r\nOverall bit rate : 3 157 Kbps\r\nMaximum Overall bit rate : 3 172 Kbps\r\nEncoded date : UTC 2012-01-27 21:16:49.310\r\nSfOriginalFPS : 250000\r\n\r\nVideo\r\nID : 2\r\nFormat : VC-1\r\nFormat profile : [email protected]\r\nCodec ID : WMV3\r\nCodec ID/Info : Windows Media Video 9\r\nCodec ID/Hint : WMV3\r\nDescription of the codec : Windows Media Video 9 - Professional\r\nDuration : 30mn 4s\r\nBit rate mode : Constant\r\nBit rate : 3 130 Kbps\r\nWidth : 960 pixels\r\nHeight : 540 pixels\r\nDisplay aspect ratio : 16:9\r\nFrame rate : 25.000 fps\r\nColor space : YUV\r\nChroma subsampling : 4:2:0\r\nBit depth : 8 bits\r\nScan type : Progressive\r\nCompression mode : Lossy\r\nBits/(Pixel*Frame) : 0.241\r\nStream size : 673 MiB (99%)\r\nLanguage : Russian\r\n\r\nAudio\r\nID : 1\r\nFormat : WMA\r\nFormat version : Version 2\r\nCodec ID : 161\r\nCodec ID/Info : Windows Media Audio\r\nDescription of the codec : Windows Media Audio 9.2 - 16 kbps, 22 kHz, mono (A/V) 1-pass CBR\r\nDuration : 30mn 4s\r\nBit rate mode : Constant\r\nBit rate : 16.0 Kbps\r\nChannel(s) : 1 channel\r\nSampling rate : 22.05 KHz\r\nBit depth : 16 bits\r\nStream size : 3.45 MiB (1%)\r\nLanguage : Russian\r\n\r\n