Hardcore Sex Hub 4013

K Three Teasing Tongues 4Sweet Teen Porn - Young Porn Videos 4113

Posted in HD Porn, Pornstar, Sex Movies, Teen, Threesome | 89606 Views |


Rate this girl !!!




\r\n\r\n\r\n\r\n\r\n\r\n\r\nLink(694 Mb||24:45||1280*720||MP4)



DOWNLOAD

Keep2share.cc - Uploaded.net - Openload.co - Rapidu.net


http://ryushare.com/yg126haorcm2/C.M.NGTMcr.mp4
http://ul.to/9a5nivb5/C.M.NGTMcr.mp4
http://k2s.cc/file/583a23df0d3d8/C.M.NGTMcr.mp4
http://fileom.com/dshmebkqoib1/C.M.NGTMcr.mp4.html


Premium here:
uploaded.net
keep2share.cc
rapidu.net.cc


Teens related to Hardcore Sex Hub 4013


Wow porn tube movies 4671 ryushare uploaded keep2share

Wow porn tube movies 4671

Nancey – Dreams Come To Life ryushare uploaded keep2share

Nancey – Dreams Come To Life

Watch Teen Sex Videos HD 4135 ryushare uploaded keep2share

Watch Teen Sex Videos HD 4135

HD Teen Sex Tube 4748 ryushare uploaded keep2share

HD Teen Sex Tube 4748

College Teen Sex 224503 ryushare uploaded keep2share

College Teen Sex 224503

Teenage Fuck Clips 225321 ryushare uploaded keep2share

Teenage Fuck Clips 225321

Young XXX Tube Videos 2398 ryushare uploaded keep2share

Young XXX Tube Videos 2398

iglish porn sexi 226443 ryushare uploaded keep2share

iglish porn sexi 226443

Teen Porn XXX Tube 224426 ryushare uploaded keep2share

Teen Porn XXX Tube 224426

wow xxxvideoshd ryushare uploaded keep2share

wow xxxvideoshd

Wow porn tube movies 4493 ryushare uploaded keep2share

Wow porn tube movies 4493

Porn HD Sex HD Teen Sex 224548 ryushare uploaded keep2share

Porn HD Sex HD Teen Sex 224548

Wow porn hd downloads 224185 ryushare uploaded keep2share

Wow porn hd downloads 224185

TrickyMasseur.com Avina ryushare uploaded keep2share

TrickyMasseur.com Avina

HQ Sex Movies Download 4735 ryushare uploaded keep2share

HQ Sex Movies Download 4735

pron pictures fucked 226288 ryushare uploaded keep2share

pron pictures fucked 226288

HD Porn Teen Sex Videos 2786 ryushare uploaded keep2share

HD Porn Teen Sex Videos 2786

ClubSeventeen.com home alone teens 02 06 ryushare uploaded keep2share

ClubSeventeen.com home alone teens 02 06

Russian amateur – Home Sex ryushare uploaded keep2share

Russian amateur – Home Sex

Riley Reid – Forget Me Not ryushare uploaded keep2share

Riley Reid – Forget Me Not

1020p hd sex videos 226575 ryushare uploaded keep2share

1020p hd sex videos 226575

Teen xxx sex hd 5505 ryushare uploaded keep2share

Teen xxx sex hd 5505

www xxxnx hd porn video ryushare uploaded keep2share

www xxxnx hd porn video

hd china teen sex video download ryushare uploaded keep2share

hd china teen sex video download

Watch Teen Sex Videos HD 1207 ryushare uploaded keep2share

Watch Teen Sex Videos HD 1207

Watch Teen Sex Videos HD 4869 ryushare uploaded keep2share

Watch Teen Sex Videos HD 4869

Teen Sex Movies Young Porn Tube Vids 4094 ryushare uploaded keep2share

Teen Sex Movies Young Porn Tube Vids 4094

High Definition Movies on HD 1754 ryushare uploaded keep2share

High Definition Movies on HD 1754

K Two Teasing Tongues 8 B ryushare uploaded keep2share

K Two Teasing Tongues 8 B

Small girls and boys porn 4062 ryushare uploaded keep2share

Small girls and boys porn 4062

Good Teen Tube Sexy Young Naked Girls Movies 224941 ryushare uploaded keep2share

Good Teen Tube Sexy Young Naked Girls Movies 224941

Join The Fun – WowGirls ryushare uploaded keep2share

Join The Fun – WowGirls

Young Sex Movies 5695 ryushare uploaded keep2share

Young Sex Movies 5695

Jenny Simons – At The Right Time ryushare uploaded keep2share

Jenny Simons – At The Right Time

xxx skymovi com ryushare uploaded keep2share

xxx skymovi com

Report broken links / Post a comment

You must be logged in to post a comment.



General\r\nComplete name : D:PornStar Download Keep2share Free online tube wath moviesC.M.NGTMcr.mp4\r\nFormat : MPEG-4\r\nFormat profile : Base Media\r\nCodec ID : isom\r\nFile size : 694 MiB\r\nDuration : 24mn 45s\r\nOverall bit rate mode : Variable\r\nOverall bit rate : 3 920 Kbps\r\nWriting application : Lavf55.33.101\r\n\r\nVideo\r\nID : 1\r\nFormat : MPEG-4 Visual\r\nFormat profile : [email protected]\r\nFormat settings, BVOP : No\r\nFormat settings, QPel : No\r\nFormat settings, GMC : No warppoints\r\nFormat settings, Matrix : Default (H.263)\r\nCodec ID : 20\r\nDuration : 24mn 45s\r\nBit rate mode : Variable\r\nBit rate : 3 788 Kbps\r\nMaximum bit rate : 5 000 Kbps\r\nWidth : 1 280 pixels\r\nHeight : 720 pixels\r\nDisplay aspect ratio : 16:9\r\nFrame rate mode : Constant\r\nFrame rate : 25.000 fps\r\nColor space : YUV\r\nChroma subsampling : 4:2:0\r\nBit depth : 8 bits\r\nScan type : Progressive\r\nCompression mode : Lossy\r\nBits/(Pixel*Frame) : 0.164\r\nStream size : 671 MiB (97%)\r\nWriting library : Lavc55.52.102\r\nLanguage : English\r\n\r\nAudio\r\nID : 2\r\nFormat : AAC\r\nFormat/Info : Advanced Audio Codec\r\nFormat profile : LC\r\nCodec ID : 40\r\nDuration : 24mn 45s\r\nBit rate mode : Constant\r\nBit rate : 128 Kbps\r\nChannel(s) : 2 channels\r\nChannel positions : Front: L R\r\nSampling rate : 48.0 KHz\r\nCompression mode : Lossy\r\nStream size : 22.6 MiB (3%)\r\nLanguage : English\r\n\r\nRAPIDGATOR / UPLOADED / UPLOADABLE / KEEP2SHARE\r\nUPLOADED / RYUSHARE / FILEOM / KEEP2SHARE\r\n\r\nhd tube amateur porn young girls sex direct download online movies clips\r\nryushare.com uploaded.net keep2share.cc fileom.com streamcloud.eu allmyvideos.net ul.to download porn movies clip