Hardcore sex videos in the high definition quality 1260

Hardcore sex videos in the high definition quality 1264Teen Sex Movies Young Porn Tube Vids 1253

Posted in Amateur, HD Porn, Sex Movies, Teen | 10057 Views |


Rate this girl !!!




\r\n\r\nhttp://img101.imagetwist.com/i/05179/qsnp256b9ks9.jpeg\r\n\r\n Link(532 Mb||24:07||1024*768||MP4)



DOWNLOAD

Keep2share.cc - Uploaded.net - Openload.co - Rapidu.net


http://ryushare.com/wqyyl59k1foa/BNGRSMbl.rar
http://ul.to/83f0qids
http://keep2share.cc/file/52efbc5df6c5f


Premium here:
uploaded.net
keep2share.cc
rapidu.net.cc


Teens related to Hardcore sex videos in the high definition quality 1260


Hd quality – Teen sex video 225399 ryushare uploaded keep2share

Hd quality – Teen sex video 225399

HD Sex World Videos High Definition Free Porn 5561 ryushare uploaded keep2share

HD Sex World Videos High Definition Free Porn 5561

yangs xxxhd89 226700 ryushare uploaded keep2share

yangs xxxhd89 226700

18XGirls.com Tori (aka Lola Taylor) ryushare uploaded keep2share

18XGirls.com Tori (aka Lola Taylor)

Sweet Teen Porn – Young Porn Videos 2093 ryushare uploaded keep2share

Sweet Teen Porn – Young Porn Videos 2093

HD Porn Videos 3003 ryushare uploaded keep2share

HD Porn Videos 3003

Fresh Teen Videos 223852 ryushare uploaded keep2share

Fresh Teen Videos 223852

Girls sex art hd teens videos 225859 ryushare uploaded keep2share

Girls sex art hd teens videos 225859

Tiffany Fox, Alina Li – Sleepover Aftermath ryushare uploaded keep2share

Tiffany Fox, Alina Li – Sleepover Aftermath

Tube Young Sex 1406 ryushare uploaded keep2share

Tube Young Sex 1406

Hardcore Sex Hub 224542 ryushare uploaded keep2share

Hardcore Sex Hub 224542

Girls do porn in HD 5406 ryushare uploaded keep2share

Girls do porn in HD 5406

Free Porn Videos Xxx Movies Pussy Porn 4959 ryushare uploaded keep2share

Free Porn Videos Xxx Movies Pussy Porn 4959

Porn teen hd downloads 225557 ryushare uploaded keep2share

Porn teen hd downloads 225557

Adult Hardcore XXX Sex Videos 3795 ryushare uploaded keep2share

Adult Hardcore XXX Sex Videos 3795

Hd young videos 225871 ryushare uploaded keep2share

Hd young videos 225871

fantasy yes xxx com 226226 ryushare uploaded keep2share

fantasy yes xxx com 226226

www xxx Bif videos HD ryushare uploaded keep2share

www xxx Bif videos HD

HD Porn Video 1701 ryushare uploaded keep2share

HD Porn Video 1701

K Three Teasing Tongues 4 ryushare uploaded keep2share

K Three Teasing Tongues 4

Teen Sex Movies Young Porn Tube Vids 4506 ryushare uploaded keep2share

Teen Sex Movies Young Porn Tube Vids 4506

Lola Taylor – Russian Pornstar ryushare uploaded keep2share

Lola Taylor – Russian Pornstar

Hd young videos 3854 ryushare uploaded keep2share

Hd young videos 3854

HQ Sex Movies Download 1864 ryushare uploaded keep2share

HQ Sex Movies Download 1864

The best Teen sex 1220 ryushare uploaded keep2share

The best Teen sex 1220

Watch Teen Sex Videos HD 1186 ryushare uploaded keep2share

Watch Teen Sex Videos HD 1186

HD Sex World Videos High Definition Free Porn 5342 ryushare uploaded keep2share

HD Sex World Videos High Definition Free Porn 5342

www hd xxxxxx bideos com 226676 ryushare uploaded keep2share

www hd xxxxxx bideos com 226676

Porno movies young teens lesbian 5061 ryushare uploaded keep2share

Porno movies young teens lesbian 5061

Milagres – A Cool Tool For Me ryushare uploaded keep2share

Milagres – A Cool Tool For Me

PORNOZZ FULL 720 226768 ryushare uploaded keep2share

PORNOZZ FULL 720 226768

Teenies Videos – Teen Porn, Teen Sex, XXX Free Videos 5072 ryushare uploaded keep2share

Teenies Videos – Teen Porn, Teen Sex, XXX Free Videos 5072

Young teens tube hot girls free porn video 2828 ryushare uploaded keep2share

Young teens tube hot girls free porn video 2828

Sweet Teen Porn – Young Porn Videos 225837 ryushare uploaded keep2share

Sweet Teen Porn – Young Porn Videos 225837

Xxx fuka in 226353 ryushare uploaded keep2share

Xxx fuka in 226353

Report broken links / Post a comment

You must be logged in to post a comment.



General\r\nComplete name : D:HD TeenMania Porn Sex videos.xxxBNGRSMblBNGRSMbl.mp4\r\nFormat : MPEG-4\r\nFormat profile : Base Media\r\nCodec ID : isom\r\nFile size : 532 MiB\r\nDuration : 24mn 7s\r\nOverall bit rate mode : Variable\r\nOverall bit rate : 3 082 Kbps\r\nWriting application : Lavf55.12.100\r\n\r\nVideo\r\nID : 1\r\nFormat : AVC\r\nFormat/Info : Advanced Video Codec\r\nFormat profile : [email protected]\r\nFormat settings, CABAC : Yes\r\nFormat settings, ReFrames : 6 frames\r\nCodec ID : avc1\r\nCodec ID/Info : Advanced Video Coding\r\nDuration : 24mn 7s\r\nBit rate : 3 000 Kbps\r\nWidth : 1 024 pixels\r\nHeight : 768 pixels\r\nDisplay aspect ratio : 4:3\r\nFrame rate mode : Constant\r\nFrame rate : 29.970 fps\r\nColor space : YUV\r\nChroma subsampling : 4:2:0\r\nBit depth : 8 bits\r\nScan type : Progressive\r\nBits/(Pixel*Frame) : 0.127\r\nStream size : 514 MiB (97%)\r\nWriting library : x264 core 124 r2019+178 69a0443\r\nEncoding settings : cabac=1 / ref=6 / deblock=1:0:0 / analyse=0x1:0x111 / me=hex / subme=6 / psy=1 / psy_rd=1.00:0.00 / mixed_ref=1 / me_range=16 / chroma_me=1 / trellis=1 / 8x8dct=0 / cqm=0 / deadzone=21,11 / fast_pskip=1 / chroma_qp_offset=-2 / threads=12 / sliced_threads=0 / nr=0 / decimate=1 / interlaced=0 / bluray_compat=0 / constrained_intra=0 / bframes=3 / b_pyramid=2 / b_adapt=1 / b_bias=0 / direct=1 / weightb=1 / open_gop=0 / weightp=2 / keyint=60 / keyint_min=25 / scenecut=40 / intra_refresh=0 / rc_lookahead=40 / rc=2pass / mbtree=1 / bitrate=3000 / ratetol=1.0 / qcomp=0.60 / qpmin=10 / qpmax=51 / qpstep=4 / cplxblur=20.0 / qblur=0.5 / vbv_maxrate=3000 / vbv_bufsize=6000 / nal_hrd=none / ip_ratio=1.41 / aq=1:1.00\r\nLanguage : English\r\n\r\nAudio\r\nID : 2\r\nFormat : AAC\r\nFormat/Info : Advanced Audio Codec\r\nFormat profile : LC\r\nCodec ID : 40\r\nDuration : 24mn 7s\r\nDuration_LastFrame : -8ms\r\nBit rate mode : Variable\r\nBit rate : 96.0 Kbps\r\nMaximum bit rate : 3 000 Kbps\r\nChannel(s) : 2 channels\r\nChannel positions : Front: L R\r\nSampling rate : 44.1 KHz\r\nCompression mode : Lossy\r\nStream size : 16.6 MiB (3%)\r\nLanguage : English\r\n\r\n