Hardcore sex videos in the high definition quality 1934

Teenage Fuck Clips 1939Hot Teen Sex HD videos 1930

Posted in HD Porn, Pornstar, Sex Movies, Teen, Threesome | 8291 Views |


Rate this girl !!!




\r\n\r\n\r\n\r\nhttp://img102.imagetwist.com/i/05296/olxz93h5nm2x.jpeg\r\n\r\n Link(861 Mb||21:30||1920*1080||MP4)



DOWNLOAD

Keep2share.cc - Uploaded.net - Openload.co - Rapidu.net


http://ul.to/dqifkhxb
http://ryushare.com/800n156nzeuq/CHDNGNdy.rar
http://keep2share.cc/file/570804125dc53


Premium here:
uploaded.net
keep2share.cc
rapidu.net.cc


Teens related to Hardcore sex videos in the high definition quality 1934


Katarinka – Russian Teen – Pack 45 clips ryushare uploaded keep2share

Katarinka – Russian Teen – Pack 45 clips

Hot Teen Sex 224500 ryushare uploaded keep2share

Hot Teen Sex 224500

Young Virgin Pussy Teen Fuck Tube 224968 ryushare uploaded keep2share

Young Virgin Pussy Teen Fuck Tube 224968

Nude Teens fucking hard 225375 ryushare uploaded keep2share

Nude Teens fucking hard 225375

Good Teen Tube Sexy Young Naked Girls Movies 224024 ryushare uploaded keep2share

Good Teen Tube Sexy Young Naked Girls Movies 224024

Hd quality – Teen sex video 1289 ryushare uploaded keep2share

Hd quality – Teen sex video 1289

Wow porn hd downloads 224896 ryushare uploaded keep2share

Wow porn hd downloads 224896

Young Sex Movies 225932 ryushare uploaded keep2share

Young Sex Movies 225932

HD Porn Teen Sex Videos 225821 ryushare uploaded keep2share

HD Porn Teen Sex Videos 225821

Wow porn hd downloads 224563 ryushare uploaded keep2share

Wow porn hd downloads 224563

TrickyMasseur.com January ryushare uploaded keep2share

TrickyMasseur.com January

Porn HD Sex HD Teen Sex 224548 ryushare uploaded keep2share

Porn HD Sex HD Teen Sex 224548

HD Teens Sex Tube Videos XxX 225747 ryushare uploaded keep2share

HD Teens Sex Tube Videos XxX 225747

Nude Teens fucking hard 1617 ryushare uploaded keep2share

Nude Teens fucking hard 1617

Porn party teen girls 224442 ryushare uploaded keep2share

Porn party teen girls 224442

Porn party teen girls 223820 ryushare uploaded keep2share

Porn party teen girls 223820

Teen Porn XXX Tube 1957 ryushare uploaded keep2share

Teen Porn XXX Tube 1957

Kiki Vidis ryushare uploaded keep2share

Kiki Vidis

Sara Luvv (Every Inch) ryushare uploaded keep2share

Sara Luvv (Every Inch)

Hot Teen Sex 5051 ryushare uploaded keep2share

Hot Teen Sex 5051

Teen porn xxx 225114 ryushare uploaded keep2share

Teen porn xxx 225114

HD Teens Sex Tube Videos XxX 225300 ryushare uploaded keep2share

HD Teens Sex Tube Videos XxX 225300

HD Teen Sex Tube 224893 ryushare uploaded keep2share

HD Teen Sex Tube 224893

Teenies Videos – Teen Porn, Teen Sex, XXX Free Videos 2114 ryushare uploaded keep2share

Teenies Videos – Teen Porn, Teen Sex, XXX Free Videos 2114

antartika sex hd ryushare uploaded keep2share

antartika sex hd

My bigtits girlfriend fornication – in the sack ryushare uploaded keep2share

My bigtits girlfriend fornication – in the sack

xxx teen clips 226044 ryushare uploaded keep2share

xxx teen clips 226044

HD Porn Videos 5360 ryushare uploaded keep2share

HD Porn Videos 5360

Porn teen hd downloads 224010 ryushare uploaded keep2share

Porn teen hd downloads 224010

Young Sex Movies 4496 ryushare uploaded keep2share

Young Sex Movies 4496

Hd young videos 5293 ryushare uploaded keep2share

Hd young videos 5293

Sex Teens porn movies 3015 ryushare uploaded keep2share

Sex Teens porn movies 3015

HD Sex World Videos High Definition Free Porn 1554 ryushare uploaded keep2share

HD Sex World Videos High Definition Free Porn 1554

HQ Sex Movies Download 225481 ryushare uploaded keep2share

HQ Sex Movies Download 225481

Watch Teen Sex Videos HD 2205 ryushare uploaded keep2share

Watch Teen Sex Videos HD 2205

Report broken links / Post a comment

You must be logged in to post a comment.



General\r\nComplete name : D:HD Teens Download Porn Sex clips movies Tube.xxxCHDNGNdyCHDNGNdy.mp4\r\nFormat : MPEG-4\r\nFormat profile : Base Media\r\nCodec ID : isom\r\nFile size : 861 MiB\r\nDuration : 21mn 30s\r\nOverall bit rate mode : Variable\r\nOverall bit rate : 5 596 Kbps\r\nWriting application : Lavf52.64.2\r\n\r\nVideo\r\nID : 1\r\nFormat : AVC\r\nFormat/Info : Advanced Video Codec\r\nFormat profile : [email protected]\r\nFormat settings, CABAC : Yes\r\nFormat settings, ReFrames : 2 frames\r\nCodec ID : avc1\r\nCodec ID/Info : Advanced Video Coding\r\nDuration : 21mn 30s\r\nBit rate : 5 497 Kbps\r\nWidth : 1 920 pixels\r\nHeight : 1 080 pixels\r\nDisplay aspect ratio : 16:9\r\nFrame rate mode : Constant\r\nFrame rate : 29.970 fps\r\nColor space : YUV\r\nChroma subsampling : 4:2:0\r\nBit depth : 8 bits\r\nScan type : Progressive\r\nBits/(Pixel*Frame) : 0.088\r\nStream size : 846 MiB (98%)\r\nWriting library : x264 core 107\r\nEncoding settings : cabac=1 / ref=2 / deblock=1:0:0 / analyse=0x3:0x113 / me=hex / subme=6 / psy=1 / psy_rd=1.00:0.00 / mixed_ref=0 / me_range=16 / chroma_me=1 / trellis=0 / 8x8dct=1 / cqm=0 / deadzone=21,11 / fast_pskip=1 / chroma_qp_offset=-2 / threads=24 / sliced_threads=0 / nr=0 / decimate=1 / interlaced=0 / constrained_intra=0 / bframes=3 / b_pyramid=0 / b_adapt=1 / b_bias=0 / direct=3 / weightb=1 / open_gop=0 / weightp=2 / keyint=250 / keyint_min=25 / scenecut=40 / intra_refresh=0 / rc_lookahead=40 / rc=crf / mbtree=1 / crf=20.0 / qcomp=0.60 / qpmin=10 / qpmax=51 / qpstep=4 / ip_ratio=1.41 / aq=1:1.00\r\n\r\nAudio\r\nID : 2\r\nFormat : AAC\r\nFormat/Info : Advanced Audio Codec\r\nFormat profile : LC\r\nCodec ID : 40\r\nDuration : 21mn 30s\r\nBit rate mode : Variable\r\nBit rate : 96.0 Kbps\r\nChannel(s) : 2 channels\r\nChannel positions : Front: L R\r\nSampling rate : 44.1 KHz\r\nCompression mode : Lossy\r\nStream size : 14.5 MiB (2%)\r\n\r\n