HD Porn Teen Sex Videos 1122

HD Teen Sex Tube 1127Bella Baby - Opposites Attract

Posted in HD Porn, Sex Movies, Teen | 12555 Views |


Rate this girl !!!




\r\n\r\nhttp://img19.imagetwist.com/i/04285/gh1ti6bitj8w.jpeg\r\n\r\n Link(817 Mb||18:26||1920*1080||MP4)



DOWNLOAD

Keep2share.cc - Uploaded.net - Openload.co - Rapidu.net


http://keep2share.cc/file/52ee3de54a262
http://ryushare.com/bgimm9hd9j2x/PNDVLXSBrl.rar
http://ul.to/d3upmrwh


Premium here:
uploaded.net
keep2share.cc
rapidu.net.cc


Tags: ,

Teens related to HD Porn Teen Sex Videos 1122


Hot Teen Sex 4324 ryushare uploaded keep2share

Hot Teen Sex 4324

www xxx Bif videos HD ryushare uploaded keep2share

www xxx Bif videos HD

teenporno mp4 ryushare uploaded keep2share

teenporno mp4

download hot pussy xxx HD video ryushare uploaded keep2share

download hot pussy xxx HD video

HD Sex World Videos High Definition Free Porn 5342 ryushare uploaded keep2share

HD Sex World Videos High Definition Free Porn 5342

Porn party teen girls 225425 ryushare uploaded keep2share

Porn party teen girls 225425

Teen porn movies 3184 ryushare uploaded keep2share

Teen porn movies 3184

The best Teen sex 224192 ryushare uploaded keep2share

The best Teen sex 224192

Teen sex xxx hd 4852 ryushare uploaded keep2share

Teen sex xxx hd 4852

www x hd video dowanloding ryushare uploaded keep2share

www x hd video dowanloding

The best Teen sex 225173 ryushare uploaded keep2share

The best Teen sex 225173

HD Porn Teen Sex Videos 2979 ryushare uploaded keep2share

HD Porn Teen Sex Videos 2979

Good Teen Tube Sexy Young Naked Girls Movies 224024 ryushare uploaded keep2share

Good Teen Tube Sexy Young Naked Girls Movies 224024

Teen Tits Tube, Young Girls Porn Videos 224467 ryushare uploaded keep2share

Teen Tits Tube, Young Girls Porn Videos 224467

Free Porn Videos Xxx Movies Pussy Porn 3183 ryushare uploaded keep2share

Free Porn Videos Xxx Movies Pussy Porn 3183

Hardcore Sex Hub 223889 ryushare uploaded keep2share

Hardcore Sex Hub 223889

Anjelica – One Love… One Life ryushare uploaded keep2share

Anjelica – One Love… One Life

hb sex yes com ryushare uploaded keep2share

hb sex yes com

HD Porn Video 1235 ryushare uploaded keep2share

HD Porn Video 1235

Tube Young Sex 5590 ryushare uploaded keep2share

Tube Young Sex 5590

Teen Sex Videos Tube Movies 225847 ryushare uploaded keep2share

Teen Sex Videos Tube Movies 225847

teens xxx vetiyos ryushare uploaded keep2share

teens xxx vetiyos

Alica – Quiet but deadly ryushare uploaded keep2share

Alica – Quiet but deadly

Young XXX Tube Videos 225357 ryushare uploaded keep2share

Young XXX Tube Videos 225357

Teen xxx sex hd 224866 ryushare uploaded keep2share

Teen xxx sex hd 224866

download porn pc hd vedoid 226182 ryushare uploaded keep2share

download porn pc hd vedoid 226182

www tens sex com 226725 ryushare uploaded keep2share

www tens sex com 226725

Teen Sex Movies Young Porn Tube Vids 5068 ryushare uploaded keep2share

Teen Sex Movies Young Porn Tube Vids 5068

Pchd full fuckin video 226436 ryushare uploaded keep2share

Pchd full fuckin video 226436

gibitube com porn 226071 ryushare uploaded keep2share

gibitube com porn 226071

High Definition Movies on HD Teen Porn XXX Tube 1692 ryushare uploaded keep2share

High Definition Movies on HD Teen Porn XXX Tube 1692

Hd video download porn china 226385 ryushare uploaded keep2share

Hd video download porn china 226385

free sex movies ppran ryushare uploaded keep2share

free sex movies ppran

Grace Hot Teen ryushare uploaded keep2share

Grace Hot Teen

College Teen Sex 224613 ryushare uploaded keep2share

College Teen Sex 224613

Report broken links / Post a comment

You must be logged in to post a comment.



General\r\nComplete name : D:HD Teen Sex Videos xxxPNDVLXSBrlPNDVLXSBrl.mp4\r\nFormat : MPEG-4\r\nFormat profile : Base Media / Version 2\r\nCodec ID : mp42\r\nFile size : 817 MiB\r\nDuration : 18mn 25s\r\nOverall bit rate mode : Variable\r\nOverall bit rate : 6 198 Kbps\r\nEncoded date : UTC 2013-09-20 07:51:00\r\nTagged date : UTC 2013-09-20 07:51:00\r\n\r\nVideo\r\nID : 1\r\nFormat : AVC\r\nFormat/Info : Advanced Video Codec\r\nFormat profile : [email protected]\r\nFormat settings, CABAC : Yes\r\nFormat settings, ReFrames : 3 frames\r\nCodec ID : avc1\r\nCodec ID/Info : Advanced Video Coding\r\nDuration : 18mn 25s\r\nBit rate : 6 004 Kbps\r\nWidth : 1 920 pixels\r\nHeight : 1 080 pixels\r\nDisplay aspect ratio : 16:9\r\nFrame rate mode : Constant\r\nFrame rate : 25.000 fps\r\nStandard : PAL\r\nColor space : YUV\r\nChroma subsampling : 4:2:0\r\nBit depth : 8 bits\r\nScan type : Progressive\r\nBits/(Pixel*Frame) : 0.116\r\nStream size : 792 MiB (97%)\r\nLanguage : English\r\nEncoded date : UTC 2013-09-20 07:51:00\r\nTagged date : UTC 2013-09-20 07:51:00\r\nColor primaries : BT.709\r\nTransfer characteristics : BT.709\r\nMatrix coefficients : BT.709\r\n\r\nAudio\r\nID : 2\r\nFormat : AAC\r\nFormat/Info : Advanced Audio Codec\r\nFormat profile : LC\r\nCodec ID : 40\r\nDuration : 18mn 25s\r\nBit rate mode : Variable\r\nBit rate : 192 Kbps\r\nMaximum bit rate : 261 Kbps\r\nChannel(s) : 2 channels\r\nChannel positions : Front: L R\r\nSampling rate : 48.0 KHz\r\nCompression mode : Lossy\r\nStream size : 25.0 MiB (3%)\r\nLanguage : English\r\nEncoded date : UTC 2013-09-20 07:51:00\r\nTagged date : UTC 2013-09-20 07:51:00\r\n\r\n