HD Porn Video 1239

Teen Sex Movies 1242HD Porn Video 1235

Posted in HD Porn, Pornstar, Sex Movies, Teen | 13466 Views |


Rate this girl !!!




\r\n\r\nhttp://img56.imagetwist.com/i/05171/nbod6wtva3nv.jpg\r\n\r\n Link(904 Mb||29:48||1280*720||WMV)



DOWNLOAD

Keep2share.cc - Uploaded.net - Openload.co - Rapidu.net


http://keep2share.cc/file/52efbeffaf76d
http://ryushare.com/5eixs8hr8be4/MTNDMdy.rar
http://ul.to/br2mc2uz


Premium here:
uploaded.net
keep2share.cc
rapidu.net.cc


Teens related to HD Porn Video 1239


Sara Luvv – Dorm Room Invitation ryushare uploaded keep2share

Sara Luvv – Dorm Room Invitation

Hardcore sex videos in the high definition quality 2374 ryushare uploaded keep2share

Hardcore sex videos in the high definition quality 2374

pikworld hd sex com 226466 ryushare uploaded keep2share

pikworld hd sex com 226466

College Teen Sex 1992 ryushare uploaded keep2share

College Teen Sex 1992

Uploaded net porn XXX 225827 ryushare uploaded keep2share

Uploaded net porn XXX 225827

avi full hd porn 226178 ryushare uploaded keep2share

avi full hd porn 226178

Teens in Porno young porn videos and free teen sex 3051 ryushare uploaded keep2share

Teens in Porno young porn videos and free teen sex 3051

Uploaded net porn XXX 224573 ryushare uploaded keep2share

Uploaded net porn XXX 224573

Watch Teen Sex Videos HD 225475 ryushare uploaded keep2share

Watch Teen Sex Videos HD 225475

www pinkwordcom 226327 ryushare uploaded keep2share

www pinkwordcom 226327

Teenage Fuck Clips 4003 ryushare uploaded keep2share

Teenage Fuck Clips 4003

full hd 1020 ponr 226530 ryushare uploaded keep2share

full hd 1020 ponr 226530

Natasha White And Dakota Skye ryushare uploaded keep2share

Natasha White And Dakota Skye

First time Sexual Films 18 sex xxx 1785 ryushare uploaded keep2share

First time Sexual Films 18 sex xxx 1785

Model porno sex 4345 ryushare uploaded keep2share

Model porno sex 4345

teen xxx video hd dowalona ryushare uploaded keep2share

teen xxx video hd dowalona

Hd young videos 2232 ryushare uploaded keep2share

Hd young videos 2232

Young Virgin Pussy Teen Fuck Tube 3398 ryushare uploaded keep2share

Young Virgin Pussy Teen Fuck Tube 3398

Wow Girls Porn Clips download 225813 ryushare uploaded keep2share

Wow Girls Porn Clips download 225813

Jessica Rayne – Jerk Off Instruction – Blowjob ryushare uploaded keep2share

Jessica Rayne – Jerk Off Instruction – Blowjob

NubileFilms.com Taylor Whyte – Finally Home ryushare uploaded keep2share

NubileFilms.com Taylor Whyte – Finally Home

HD Teen Sex Tube 2148 ryushare uploaded keep2share

HD Teen Sex Tube 2148

HQ Sex Movies Download 4735 ryushare uploaded keep2share

HQ Sex Movies Download 4735

8 Teen XXX – Teen Sex 3987 ryushare uploaded keep2share

8 Teen XXX – Teen Sex 3987

Teen 18 Porn XXX Clips Naked 3189 ryushare uploaded keep2share

Teen 18 Porn XXX Clips Naked 3189

Young 720p hd porn 3975 ryushare uploaded keep2share

Young 720p hd porn 3975

Young XXX Tube Videos 2812 ryushare uploaded keep2share

Young XXX Tube Videos 2812

xxx video hd romantik downlod ryushare uploaded keep2share

xxx video hd romantik downlod

High Definition Movies on HD Teen Porn XXX Tube 6225 ryushare uploaded keep2share

High Definition Movies on HD Teen Porn XXX Tube 6225

www xxx hd movi in 226018 ryushare uploaded keep2share

www xxx hd movi in 226018

Wow girls downloads hd 224420 ryushare uploaded keep2share

Wow girls downloads hd 224420

Wow girls hd porn teens 224738 ryushare uploaded keep2share

Wow girls hd porn teens 224738

The best Teen sex 2589 ryushare uploaded keep2share

The best Teen sex 2589

Teen 18 Porn XXX Clips Naked 3853 ryushare uploaded keep2share

Teen 18 Porn XXX Clips Naked 3853

yangs xxxhd89 226700 ryushare uploaded keep2share

yangs xxxhd89 226700

Report broken links / Post a comment

You must be logged in to post a comment.



General\r\nComplete name : D:HD TeenMania Porn Sex videos.xxxMTNDMdyMTNDMdy.wmv\r\nFormat : Windows Media\r\nFile size : 904 MiB\r\nDuration : 29mn 48s\r\nOverall bit rate mode : Constant\r\nOverall bit rate : 4 242 Kbps\r\nMaximum Overall bit rate : 4 258 Kbps\r\nEncoded date : UTC 2010-06-15 11:30:39.773\r\n\r\nVideo\r\nID : 2\r\nFormat : VC-1\r\nFormat profile : [email protected]\r\nCodec ID : WMV3\r\nCodec ID/Info : Windows Media Video 9\r\nCodec ID/Hint : WMV3\r\nDescription of the codec : Windows Media Video 9 - Professional\r\nDuration : 29mn 48s\r\nBit rate mode : Constant\r\nBit rate : 4 096 Kbps\r\nWidth : 1 280 pixels\r\nHeight : 720 pixels\r\nDisplay aspect ratio : 16:9\r\nFrame rate : 25.000 fps\r\nColor space : YUV\r\nChroma subsampling : 4:2:0\r\nBit depth : 8 bits\r\nScan type : Progressive\r\nCompression mode : Lossy\r\nBits/(Pixel*Frame) : 0.178\r\nStream size : 873 MiB (97%)\r\nLanguage : Russian\r\nNumberOfFrames : 44697\r\n\r\nAudio\r\nID : 1\r\nFormat : WMA\r\nFormat version : Version 2\r\nCodec ID : 161\r\nCodec ID/Info : Windows Media Audio\r\nDescription of the codec : Windows Media Audio 9.2 - 128 kbps, 44 kHz, stereo 1-pass CBR\r\nDuration : 29mn 48s\r\nBit rate mode : Constant\r\nBit rate : 128 Kbps\r\nChannel(s) : 2 channels\r\nSampling rate : 44.1 KHz\r\nBit depth : 16 bits\r\nStream size : 27.3 MiB (3%)\r\nLanguage : Russian\r\nNumberOfFrames : 4815\r\n\r\n