HD Porn Video 1421

Good Teen Tube Sexy Young Naked Girls Movies 1427Free Teen Porn Videos at Teen Sex Tube XXX 1416

Posted in Amateur, HD Porn, Sex Movies, Teen, Threesome | 7950 Views |


Rate this girl !!!




\r\n\r\n\r\n\r\n\r\nhttp://img102.imagetwist.com/i/05210/ocopgjd9bqt8.jpeg\r\n\r\n Link(1.08 Gb||21:05||1920*1080||MPG)



DOWNLOAD

Keep2share.cc - Uploaded.net - Openload.co - Rapidu.net


http://keep2share.cc/file/b107f69f9eaf8
http://ryushare.com/lc43exwa3cv1/TNBSRSky.rar
http://ul.to/yzcfuh2o


Premium here:
uploaded.net
keep2share.cc
rapidu.net.cc


Teens related to HD Porn Video 1421


Free High Quality Sex Movies 1175 ryushare uploaded keep2share

Free High Quality Sex Movies 1175

High Definition Movies on HD 5364 ryushare uploaded keep2share

High Definition Movies on HD 5364

Teen Sex Porn Videos Free Nude Teens 3671 ryushare uploaded keep2share

Teen Sex Porn Videos Free Nude Teens 3671

www hd xvideos hardcore teeny girl ryushare uploaded keep2share

www hd xvideos hardcore teeny girl

Sandy Sweet – To Have And To Fuck ryushare uploaded keep2share

Sandy Sweet – To Have And To Fuck

Whitney Conroy & Alexis Crystal – Sheets In The Wind ryushare uploaded keep2share

Whitney Conroy & Alexis Crystal – Sheets In The Wind

Lucy Li – 18OnlyGirls ryushare uploaded keep2share

Lucy Li – 18OnlyGirls

Teen Tits Tube, Young Girls Porn Videos 224467 ryushare uploaded keep2share

Teen Tits Tube, Young Girls Porn Videos 224467

Skinny brunette ryushare uploaded keep2share

Skinny brunette

Wow Girls Porn Clips download 223881 ryushare uploaded keep2share

Wow Girls Porn Clips download 223881

Teen Sex Videos Tube Movies 225843 ryushare uploaded keep2share

Teen Sex Videos Tube Movies 225843

Analized.com] Kate England (Kate Englands Ass Punished by Huge Black Cock) [2016 г., All Sex, Anal, 720p] ryushare uploaded keep2share

Analized.com] Kate England (Kate Englands Ass Punished by Huge Black Cock) [2016 г., All Sex, Anal, 720p]

Hd young videos 1872 ryushare uploaded keep2share

Hd young videos 1872

Teens in Porno young porn videos and free teen sex 1763 ryushare uploaded keep2share

Teens in Porno young porn videos and free teen sex 1763

Izzy Delphine, Michelle, Caroline -The Big Adventure ryushare uploaded keep2share

Izzy Delphine, Michelle, Caroline -The Big Adventure

Teen Sex Porn Videos Free Nude Teens 4441 ryushare uploaded keep2share

Teen Sex Porn Videos Free Nude Teens 4441

apetubegirls ryushare uploaded keep2share

apetubegirls

Fucking in the shower with young blonde ryushare uploaded keep2share

Fucking in the shower with young blonde

Teen Sex Movies Young Porn Tube Vids 3596 ryushare uploaded keep2share

Teen Sex Movies Young Porn Tube Vids 3596

Uploaded net porn XXX 224151 ryushare uploaded keep2share

Uploaded net porn XXX 224151

Teen sex xxx hd 2606 ryushare uploaded keep2share

Teen sex xxx hd 2606

Tube xxx 224245 ryushare uploaded keep2share

Tube xxx 224245

Chelsea – First & Forever ryushare uploaded keep2share

Chelsea – First & Forever

High Definition Movies on HD 225835 ryushare uploaded keep2share

High Definition Movies on HD 225835

anjelica join the fun keep2share ryushare uploaded keep2share

anjelica join the fun keep2share

Nubiles-Porn.com Halle Von – Training To Please ryushare uploaded keep2share

Nubiles-Porn.com Halle Von – Training To Please

Teen xxx sex hd 224959 ryushare uploaded keep2share

Teen xxx sex hd 224959

Young teens tube hot girls free porn video 5000 ryushare uploaded keep2share

Young teens tube hot girls free porn video 5000

Teen 18 Porn XXX Clips Naked 224863 ryushare uploaded keep2share

Teen 18 Porn XXX Clips Naked 224863

wwwsex beuty hd video 226570 ryushare uploaded keep2share

wwwsex beuty hd video 226570

Aiko Mai, Angellina – Sweet Like Candy ryushare uploaded keep2share

Aiko Mai, Angellina – Sweet Like Candy

[RylskyArt.com] Solana – Kasanya ryushare uploaded keep2share

[RylskyArt.com] Solana – Kasanya

Backyard Amateurs (3 scenes) ryushare uploaded keep2share

Backyard Amateurs (3 scenes)

short porn movies hd download 226560 ryushare uploaded keep2share

short porn movies hd download 226560

xxxxsexvideo 226647 ryushare uploaded keep2share

xxxxsexvideo 226647

Report broken links / Post a comment

You must be logged in to post a comment.



General\r\nComplete name : D:HD Teens Download Porn Sex clips movies Tube.xxxTNBSRSkyTNBSRSky.mpg\r\nFormat : MPEG-PS\r\nFile size : 1.08 GiB\r\nDuration : 21mn 5s\r\nOverall bit rate mode : Variable\r\nOverall bit rate : 7 301 Kbps\r\n\r\nVideo\r\nID : 224 (0xE0)\r\nFormat : MPEG Video\r\nFormat version : Version 1\r\nFormat settings, BVOP : No\r\nFormat settings, Matrix : Default\r\nFormat settings, GOP : Variable\r\nDuration : 21mn 5s\r\nBit rate mode : Variable\r\nBit rate : 7 028 Kbps\r\nWidth : 1 920 pixels\r\nHeight : 1 080 pixels\r\nDisplay aspect ratio : 16:9\r\nFrame rate : 23.976 fps\r\nColor space : YUV\r\nChroma subsampling : 4:2:0\r\nBit depth : 8 bits\r\nScan type : Progressive\r\nCompression mode : Lossy\r\nBits/(Pixel*Frame) : 0.141\r\nTime code of first frame : 00:00:00:00\r\nTime code source : Group of pictures header\r\nStream size : 1.04 GiB (96%)\r\n\r\nAudio\r\nID : 192 (0xC0)\r\nFormat : MPEG Audio\r\nFormat version : Version 1\r\nFormat profile : Layer 2\r\nDuration : 21mn 5s\r\nBit rate mode : Constant\r\nBit rate : 128 Kbps\r\nChannel(s) : 2 channels\r\nSampling rate : 48.0 KHz\r\nCompression mode : Lossy\r\nStream size : 19.3 MiB (2%)\r\n\r\n