HD Porn Video 3620

HD Teen Sex Tube 3628High Definition Movies on HD Teen Porn XXX Tube 3621

Posted in HD Porn, Pornstar, Sex Movies, Teen | 21467 Views |


Rate this girl !!!




\r\n\r\n\r\n



DOWNLOAD

Keep2share.cc - Uploaded.net - Openload.co - Rapidu.net


http://fileom.com/o62dqrzbl008/RMNTSnt.mp4.html
http://ryushare.com/pp3z8zxib1z6/RMNTSnt.mp4
http://ul.to/gnkwq6mw/RMNTSnt.mp4
http://k2s.cc/file/aac029a84532d/RMNTSnt.mp4


Premium here:
uploaded.net
keep2share.cc
rapidu.net.cc


Teens related to HD Porn Video 3620


Wow porn tube movies 4671 ryushare uploaded keep2share

Wow porn tube movies 4671

HQ Sex Movies Download 1132 ryushare uploaded keep2share

HQ Sex Movies Download 1132

HD Sex World Videos High Definition Free Porn 4540 ryushare uploaded keep2share

HD Sex World Videos High Definition Free Porn 4540

HD Porn Videos 225354 ryushare uploaded keep2share

HD Porn Videos 225354

High Definition Movies on HD 4341 ryushare uploaded keep2share

High Definition Movies on HD 4341

Teen Sex Movies 1210 ryushare uploaded keep2share

Teen Sex Movies 1210

Watch Teen Sex Videos HD 2205 ryushare uploaded keep2share

Watch Teen Sex Videos HD 2205

HD Teen Sex Tube 224636 ryushare uploaded keep2share

HD Teen Sex Tube 224636

HD Porn Teen Sex Videos 4268 ryushare uploaded keep2share

HD Porn Teen Sex Videos 4268

[RylskyArt.com] Gia – Shadows ryushare uploaded keep2share

[RylskyArt.com] Gia – Shadows

College Teen Sex 225693 ryushare uploaded keep2share

College Teen Sex 225693

GirlsDoPorn – 19 Years Old Girl – Legal Teens ryushare uploaded keep2share

GirlsDoPorn – 19 Years Old Girl – Legal Teens

A Place With A View – WowPorn ryushare uploaded keep2share

A Place With A View – WowPorn

HD Porn Videos 4503 ryushare uploaded keep2share

HD Porn Videos 4503

Wow porn hd downloads 224274 ryushare uploaded keep2share

Wow porn hd downloads 224274

Tina Blade, Marica Hase – Spurts of love ryushare uploaded keep2share

Tina Blade, Marica Hase – Spurts of love

Teenies Videos – Teen Porn, Teen Sex, XXX Free Videos 224383 ryushare uploaded keep2share

Teenies Videos – Teen Porn, Teen Sex, XXX Free Videos 224383

Good Teen Tube Sexy Young Naked Girls Movies 225833 ryushare uploaded keep2share

Good Teen Tube Sexy Young Naked Girls Movies 225833

tube8hd video ryushare uploaded keep2share

tube8hd video

Teenies Videos – Teen Porn, Teen Sex, XXX Free Videos 2114 ryushare uploaded keep2share

Teenies Videos – Teen Porn, Teen Sex, XXX Free Videos 2114

keira winters grup hard porn 226635 ryushare uploaded keep2share

keira winters grup hard porn 226635

Young Virgin Pussy Teen Fuck Tube 3398 ryushare uploaded keep2share

Young Virgin Pussy Teen Fuck Tube 3398

89 hd sex videos in 226208 ryushare uploaded keep2share

89 hd sex videos in 226208

Www pinkworld com hd xxx video 226174 ryushare uploaded keep2share

Www pinkworld com hd xxx video 226174

Young legal porn clips 4754 ryushare uploaded keep2share

Young legal porn clips 4754

The best Teen sex 6196 ryushare uploaded keep2share

The best Teen sex 6196

Her Sweet Hand – Beatrice ryushare uploaded keep2share

Her Sweet Hand – Beatrice

hardcore sex xxx 226030 ryushare uploaded keep2share

hardcore sex xxx 226030

College Teen Sex 2160 ryushare uploaded keep2share

College Teen Sex 2160

Porn HD Sex HD Teen Sex 225023 ryushare uploaded keep2share

Porn HD Sex HD Teen Sex 225023

Amarna  – PublicAgent ryushare uploaded keep2share

Amarna – PublicAgent

Little pornstar teen with a big hole ryushare uploaded keep2share

Little pornstar teen with a big hole

[Castingcouch-X.com] Alex Tanner ryushare uploaded keep2share

[Castingcouch-X.com] Alex Tanner

Amateur teen summer sex movies 4816 ryushare uploaded keep2share

Amateur teen summer sex movies 4816

Small girls and boys porn 3525 ryushare uploaded keep2share

Small girls and boys porn 3525

Report broken links / Post a comment

You must be logged in to post a comment.



General\r\nComplete name : D:hd pornstars teens ryushare.com uploaded.net keep2share.cc fileom.comRMNTSnt.mp4\r\nFormat : MPEG-4\r\nFormat profile : Base Media\r\nCodec ID : isom\r\nFile size : 677 MiB\r\nDuration : 26mn 8s\r\nOverall bit rate mode : Variable\r\nOverall bit rate : 3 620 Kbps\r\nWriting application : Lavf54.63.104\r\n\r\nVideo\r\nID : 1\r\nFormat : AVC\r\nFormat/Info : Advanced Video Codec\r\nFormat profile : [email protected]\r\nFormat settings, CABAC : Yes\r\nFormat settings, ReFrames : 4 frames\r\nCodec ID : avc1\r\nCodec ID/Info : Advanced Video Coding\r\nDuration : 26mn 8s\r\nBit rate : 3 500 Kbps\r\nWidth : 1 280 pixels\r\nHeight : 720 pixels\r\nDisplay aspect ratio : 16:9\r\nFrame rate mode : Constant\r\nFrame rate : 25.000 fps\r\nColor space : YUV\r\nChroma subsampling : 4:2:0\r\nBit depth : 8 bits\r\nScan type : Progressive\r\nBits/(Pixel*Frame) : 0.152\r\nStream size : 655 MiB (97%)\r\nWriting library : x264 core 120\r\nEncoding settings : cabac=1 / ref=3 / deblock=1:0:0 / analyse=0x3:0x113 / me=hex / subme=6 / psy=1 / psy_rd=1.00:0.00 / mixed_ref=1 / me_range=16 / chroma_me=1 / trellis=2 / 8x8dct=1 / cqm=0 / deadzone=21,11 / fast_pskip=1 / chroma_qp_offset=-2 / threads=12 / sliced_threads=0 / nr=0 / decimate=1 / interlaced=0 / bluray_compat=0 / constrained_intra=0 / bframes=3 / b_pyramid=2 / b_adapt=2 / b_bias=0 / direct=1 / weightb=1 / open_gop=0 / weightp=2 / keyint=60 / keyint_min=25 / scenecut=40 / intra_refresh=0 / rc_lookahead=40 / rc=abr / mbtree=1 / bitrate=3500 / ratetol=1.0 / qcomp=0.60 / qpmin=0 / qpmax=69 / qpstep=4 / ip_ratio=1.41 / aq=1:1.00\r\nLanguage : English\r\n\r\nAudio\r\nID : 2\r\nFormat : AAC\r\nFormat/Info : Advanced Audio Codec\r\nFormat profile : LC\r\nCodec ID : 40\r\nDuration : 26mn 8s\r\nDuration_LastFrame : -20ms\r\nBit rate mode : Variable\r\nBit rate : 109 Kbps\r\nMaximum bit rate : 128 Kbps\r\nChannel(s) : 2 channels\r\nChannel positions : Front: L R\r\nSampling rate : 44.1 KHz\r\nCompression mode : Lossy\r\nStream size : 20.3 MiB (3%)\r\nLanguage : English\r\n\r\nhd pornstars teens ryushare.com uploaded.net keep2share.cc fileom.com download porn movies clips