HD Porn Videos 2135

Free High Quality Sex Movies 2139Teen porn movies 2132

Posted in Amateur, HD Porn, Sex Movies, Teen | 10580 Views |


Rate this girl !!!




\r\n\r\n3.jpeg\r\n\r\n Link(586 Mb||19:00||1280*720||MP4)



DOWNLOAD

Keep2share.cc - Uploaded.net - Openload.co - Rapidu.net


http://ryushare.com/atwzh9f5o7h0/BSCMSGry.mp4
http://ul.to/41s0t400/BSCMSGry.mp4
http://k2s.cc/file/cbce88925a3b7/BSCMSGry.mp4


Premium here:
uploaded.net
keep2share.cc
rapidu.net.cc


Teens related to HD Porn Videos 2135


Brunette bonk ryushare uploaded keep2share

Brunette bonk

teen pornosu indir mp4 ryushare uploaded keep2share

teen pornosu indir mp4

Klixen – K Fantasies of a Piano Player ryushare uploaded keep2share

Klixen – K Fantasies of a Piano Player

Watch Teen Sex Videos HD 224956 ryushare uploaded keep2share

Watch Teen Sex Videos HD 224956

Young XXX Tube Videos 2002 ryushare uploaded keep2share

Young XXX Tube Videos 2002

Good Teen Tube Sexy Young Naked Girls Movies 1383 ryushare uploaded keep2share

Good Teen Tube Sexy Young Naked Girls Movies 1383

Dani Daniels HD Hot Teen ryushare uploaded keep2share

Dani Daniels HD Hot Teen

The best Teen sex 225079 ryushare uploaded keep2share

The best Teen sex 225079

High Definition Movies on HD Teen Porn XXX Tube 1493 ryushare uploaded keep2share

High Definition Movies on HD Teen Porn XXX Tube 1493

Hot Teen Sex 224413 ryushare uploaded keep2share

Hot Teen Sex 224413

High Definition Movies on HD Teen Porn XXX Tube 1229 ryushare uploaded keep2share

High Definition Movies on HD Teen Porn XXX Tube 1229

Free High Quality Sex Movies 1698 ryushare uploaded keep2share

Free High Quality Sex Movies 1698

xxxvidohd donlwd com ryushare uploaded keep2share

xxxvidohd donlwd com

Wow Girls Porn Clips download 223881 ryushare uploaded keep2share

Wow Girls Porn Clips download 223881

[RylskyArt.com] Luciana – Sommerz ryushare uploaded keep2share

[RylskyArt.com] Luciana – Sommerz

fast tiam movie hot xxx hd free 226715 ryushare uploaded keep2share

fast tiam movie hot xxx hd free 226715

Tube xxx 224245 ryushare uploaded keep2share

Tube xxx 224245

Teenies Videos – Teen Porn, Teen Sex, XXX Free Videos 1601 ryushare uploaded keep2share

Teenies Videos – Teen Porn, Teen Sex, XXX Free Videos 1601

TrickyMasseur.com Raquel ryushare uploaded keep2share

TrickyMasseur.com Raquel

MyDirtySecret – All Sex, Amateur, Creampie, 720p ryushare uploaded keep2share

MyDirtySecret – All Sex, Amateur, Creampie, 720p

Her Sweet Hand – Beatrice ryushare uploaded keep2share

Her Sweet Hand – Beatrice

Watch Teen Sex Videos HD 1595 ryushare uploaded keep2share

Watch Teen Sex Videos HD 1595

Amateur Teen Sex 224827 ryushare uploaded keep2share

Amateur Teen Sex 224827

noveteens girls models clips 226158 ryushare uploaded keep2share

noveteens girls models clips 226158

Watch Teen Sex Videos HD 4949 ryushare uploaded keep2share

Watch Teen Sex Videos HD 4949

Teen Sex Porn Videos Free Nude Teens 5214 ryushare uploaded keep2share

Teen Sex Porn Videos Free Nude Teens 5214

hd18sex x videos com ryushare uploaded keep2share

hd18sex x videos com

8 Teen XXX – Teen Sex 3987 ryushare uploaded keep2share

8 Teen XXX – Teen Sex 3987

Free Young Porn Videos XXX Teen Porn 224328 ryushare uploaded keep2share

Free Young Porn Videos XXX Teen Porn 224328

Any sex full hd x art porn vidivos free ryushare uploaded keep2share

Any sex full hd x art porn vidivos free

HD Teens Sex Tube Videos XxX 225300 ryushare uploaded keep2share

HD Teens Sex Tube Videos XxX 225300

non HD xxx movie ryushare uploaded keep2share

non HD xxx movie

Teen Sex Porn Videos Free Nude Teens 1518 ryushare uploaded keep2share

Teen Sex Porn Videos Free Nude Teens 1518

Hardcore Sex Hub 224794 ryushare uploaded keep2share

Hardcore Sex Hub 224794

Young teens tube hot girls free porn video 2523 ryushare uploaded keep2share

Young teens tube hot girls free porn video 2523

Report broken links / Post a comment

You must be logged in to post a comment.



General\r\nComplete name : D:HD Teens Download Porn Sex clips movies TubeBSCMSGry.mp4\r\nFormat : MPEG-4\r\nFormat profile : Base Media\r\nCodec ID : isom\r\nFile size : 586 MiB\r\nDuration : 19mn 0s\r\nOverall bit rate : 4 311 Kbps\r\nWriting application : Lavf55.7.100\r\n\r\nVideo\r\nID : 1\r\nFormat : AVC\r\nFormat/Info : Advanced Video Codec\r\nFormat profile : [email protected]\r\nFormat settings, CABAC : Yes\r\nFormat settings, ReFrames : 5 frames\r\nCodec ID : avc1\r\nCodec ID/Info : Advanced Video Coding\r\nDuration : 18mn 59s\r\nBit rate : 4 000 Kbps\r\nWidth : 1 280 pixels\r\nHeight : 720 pixels\r\nDisplay aspect ratio : 16:9\r\nFrame rate mode : Constant\r\nFrame rate : 29.970 fps\r\nColor space : YUV\r\nChroma subsampling : 4:2:0\r\nBit depth : 8 bits\r\nScan type : Progressive\r\nBits/(Pixel*Frame) : 0.145\r\nStream size : 543 MiB (93%)\r\nWriting library : x264 core 133 r2334 a3ac64b\r\nEncoding settings : cabac=1 / ref=5 / deblock=1:0:0 / analyse=0x3:0x113 / me=umh / subme=8 / psy=1 / psy_rd=1.00:0.00 / mixed_ref=1 / me_range=16 / chroma_me=1 / trellis=1 / 8x8dct=1 / cqm=0 / deadzone=21,11 / fast_pskip=1 / chroma_qp_offset=-2 / threads=6 / lookahead_threads=1 / sliced_threads=0 / nr=0 / decimate=1 / interlaced=0 / bluray_compat=0 / constrained_intra=0 / bframes=3 / b_pyramid=2 / b_adapt=2 / b_bias=0 / direct=3 / weightb=1 / open_gop=0 / weightp=2 / keyint=60 / keyint_min=6 / scenecut=40 / intra_refresh=0 / rc_lookahead=50 / rc=abr / mbtree=1 / bitrate=4000 / ratetol=1.0 / qcomp=0.60 / qpmin=0 / qpmax=69 / qpstep=4 / ip_ratio=1.40 / aq=1:1.00\r\nTagged date : UTC 2014-02-27 13:39:27\r\n\r\nAudio\r\nID : 2\r\nFormat : AAC\r\nFormat/Info : Advanced Audio Codec\r\nFormat profile : LC\r\nCodec ID : 40\r\nDuration : 19mn 0s\r\nDuration_LastFrame : -9ms\r\nBit rate mode : Constant\r\nBit rate : 128 Kbps\r\nChannel(s) : 2 channels\r\nChannel positions : Front: L R\r\nSampling rate : 48.0 KHz\r\nCompression mode : Lossy\r\nStream size : 17.4 MiB (3%)\r\nTagged date : UTC 2014-02-27 13:39:27\r\n\r\n