HD sex movies downloads 2913

Chinara, Peachy – Cum And Be HappyFirst time Sexual Films 18 sex xxx 3226

Posted in HD Porn, Pornstar, Sex Movies, Teen, Threesome | 19961 Views |


Rate this girl !!!




\r\n4.jpeg\r\n\r\nLink(561 Mb||25:36||1280*720||MP4)



DOWNLOAD

Keep2share.cc - Uploaded.net - Openload.co - Rapidu.net


http://k2s.cc/file/25ac83b4a8885/NBMSCHlb.mp4
http://ryushare.com/954q3jv7gc6x/NBMSCHlb.mp4
http://ul.to/2vybdqdp/NBMSCHlb.mp4


Premium here:
uploaded.net
keep2share.cc
rapidu.net.cc


Teens related to HD sex movies downloads 2913


www hd sex xxxcome ryushare uploaded keep2share

www hd sex xxxcome

17sex viodeos 226514 ryushare uploaded keep2share

17sex viodeos 226514

Teen Sex Movies Young Porn Tube Vids 5668 ryushare uploaded keep2share

Teen Sex Movies Young Porn Tube Vids 5668

Girls sex art hd teens videos 225709 ryushare uploaded keep2share

Girls sex art hd teens videos 225709

X-Angels.com Lida ryushare uploaded keep2share

X-Angels.com Lida

Teenies Videos – Teen Porn, Teen Sex, XXX Free Videos 4372 ryushare uploaded keep2share

Teenies Videos – Teen Porn, Teen Sex, XXX Free Videos 4372

baby hd mp4 deflortioan sex 226670 ryushare uploaded keep2share

baby hd mp4 deflortioan sex 226670

21Naturals Sweet Cat ryushare uploaded keep2share

21Naturals Sweet Cat

sky hd movie xxx 226267 ryushare uploaded keep2share

sky hd movie xxx 226267

Good Teen Tube Sexy Young Naked Girls Movies 225497 ryushare uploaded keep2share

Good Teen Tube Sexy Young Naked Girls Movies 225497

Movies Young legal porn 225867 ryushare uploaded keep2share

Movies Young legal porn 225867

Fresh Teen Videos 4156 ryushare uploaded keep2share

Fresh Teen Videos 4156

Kleine Muschi will ficken – Desertigl ryushare uploaded keep2share

Kleine Muschi will ficken – Desertigl

Girls do porn downloads 3844 ryushare uploaded keep2share

Girls do porn downloads 3844

Sweet Teen Porn – Young Porn Videos 224227 ryushare uploaded keep2share

Sweet Teen Porn – Young Porn Videos 224227

romentic hd pornmovie download 226723 ryushare uploaded keep2share

romentic hd pornmovie download 226723

www hd xxxxxx bideos com 226676 ryushare uploaded keep2share

www hd xxxxxx bideos com 226676

HD Teens Sex Tube Videos XxX 224767 ryushare uploaded keep2share

HD Teens Sex Tube Videos XxX 224767

Porn party teen girls 224438 ryushare uploaded keep2share

Porn party teen girls 224438

HD sex movies downloads 2769 ryushare uploaded keep2share

HD sex movies downloads 2769

xxx movie hd colle 226176 ryushare uploaded keep2share

xxx movie hd colle 226176

8 Teen XXX – Teen Sex 5638 ryushare uploaded keep2share

8 Teen XXX – Teen Sex 5638

fucking sex hd download 226750 ryushare uploaded keep2share

fucking sex hd download 226750

Free Teen Porn Videos at Teen Sex Tube XXX 2592 ryushare uploaded keep2share

Free Teen Porn Videos at Teen Sex Tube XXX 2592

Beautiful brunette teen fucking from behind Hd ryushare uploaded keep2share

Beautiful brunette teen fucking from behind Hd

hd china teen sex video download ryushare uploaded keep2share

hd china teen sex video download

Ibiza Party – Teens Sex ryushare uploaded keep2share

Ibiza Party – Teens Sex

video porn massage porn ryushare uploaded keep2share

video porn massage porn

Wow Girls Porn Clips download 224524 ryushare uploaded keep2share

Wow Girls Porn Clips download 224524

Teen Sex Porn Videos Free Nude Teens 2202 ryushare uploaded keep2share

Teen Sex Porn Videos Free Nude Teens 2202

HD Teen Sex Tube 225351 ryushare uploaded keep2share

HD Teen Sex Tube 225351

Teen porn movies 225435 ryushare uploaded keep2share

Teen porn movies 225435

Teenage Fuck Clips 5122 ryushare uploaded keep2share

Teenage Fuck Clips 5122

Nude Teens fucking hard 1320 ryushare uploaded keep2share

Nude Teens fucking hard 1320

In Hd quality xxx video for download 226652 ryushare uploaded keep2share

In Hd quality xxx video for download 226652

Report broken links / Post a comment

You must be logged in to post a comment.



General\r\nComplete name : D:HD Porn Teens Sex movies tube online downloadNBMSCHlb.mp4\r\nFormat : MPEG-4\r\nFormat profile : Base Media\r\nCodec ID : isom\r\nFile size : 561 MiB\r\nDuration : 25mn 36s\r\nOverall bit rate mode : Variable\r\nOverall bit rate : 3 061 Kbps\r\nWriting application : Lavf54.25.104\r\n\r\nVideo\r\nID : 1\r\nFormat : AVC\r\nFormat/Info : Advanced Video Codec\r\nFormat profile : [email protected]\r\nFormat settings, CABAC : Yes\r\nFormat settings, ReFrames : 4 frames\r\nCodec ID : avc1\r\nCodec ID/Info : Advanced Video Coding\r\nDuration : 25mn 36s\r\nBit rate : 2 903 Kbps\r\nWidth : 1 280 pixels\r\nHeight : 720 pixels\r\nDisplay aspect ratio : 16:9\r\nFrame rate mode : Constant\r\nFrame rate : 23.976 fps\r\nColor space : YUV\r\nChroma subsampling : 4:2:0\r\nBit depth : 8 bits\r\nScan type : Progressive\r\nBits/(Pixel*Frame) : 0.131\r\nStream size : 532 MiB (95%)\r\nWriting library : x264 core 125 r2208 d9d2288\r\nEncoding settings : cabac=1 / ref=2 / deblock=1:-1:-1 / analyse=0x1:0x111 / me=umh / subme=8 / psy=1 / psy_rd=1.00:0.15 / mixed_ref=1 / me_range=16 / chroma_me=1 / trellis=1 / 8x8dct=0 / cqm=0 / deadzone=21,11 / fast_pskip=1 / chroma_qp_offset=-3 / threads=1 / lookahead_threads=1 / sliced_threads=0 / nr=0 / decimate=1 / interlaced=0 / bluray_compat=0 / constrained_intra=0 / bframes=3 / b_pyramid=2 / b_adapt=2 / b_bias=0 / direct=3 / weightb=1 / open_gop=0 / weightp=0 / keyint=250 / keyint_min=23 / scenecut=40 / intra_refresh=0 / rc_lookahead=50 / rc=crf / mbtree=1 / crf=17.0 / qcomp=0.60 / qpmin=0 / qpmax=69 / qpstep=4 / ip_ratio=1.40 / aq=1:1.00\r\nLanguage : English\r\n\r\nAudio\r\nID : 2\r\nFormat : AAC\r\nFormat/Info : Advanced Audio Codec\r\nFormat profile : LC\r\nCodec ID : 40\r\nDuration : 25mn 36s\r\nBit rate mode : Variable\r\nBit rate : 152 Kbps\r\nMaximum bit rate : 196 Kbps\r\nChannel(s) : 2 channels\r\nChannel positions : Front: L R\r\nSampling rate : 44.1 KHz\r\nCompression mode : Lossy\r\nDelay relative to video : 83ms\r\nStream size : 27.8 MiB (5%)\r\nLanguage : English\r\n\r\n