HD sex movies downloads 3812

Free High Quality Sex Movies 3816Teen Sex Porn Videos Free Nude Teens 3806

Posted in Amateur, HD Porn, Sex Movies, Teen | 9186 Views |


Rate this girl !!!




cover

\r\n

1920x1080p / MP4 / 594.62 MB

\r\n

 UPLOADED / RYUSHARE / FILEOM / KEEP2SHARE

\r\n

SCREENSHOTS:

\r\n

screens

\r\n



DOWNLOAD

Keep2share.cc - Uploaded.net - Openload.co - Rapidu.net


http://fileom.com/bqnxhwezr5zj/You_Read_Too_Much_HD1080.mp4.html
http://ryushare.com/ggwk7ncxtafq/You_Read_Too_Much_HD1080.mp4
http://ul.to/0stqdwyt/You_Read_Too_Much_HD1080.mp4
http://k2s.cc/file/2a9c259e92480/You_Read_Too_Much_HD1080.mp4


Premium here:
uploaded.net
keep2share.cc
rapidu.net.cc


Teens related to HD sex movies downloads 3812


Porn HD Sex HD Teen Sex 224487 ryushare uploaded keep2share

Porn HD Sex HD Teen Sex 224487

Denise Sky ryushare uploaded keep2share

Denise Sky

Hd quality – Teen sex video 223701 ryushare uploaded keep2share

Hd quality – Teen sex video 223701

H D SEXI VIDEO com 226526 ryushare uploaded keep2share

H D SEXI VIDEO com 226526

Hardcore sex videos in the high definition quality 1260 ryushare uploaded keep2share

Hardcore sex videos in the high definition quality 1260

Taissia A – Bed of Roses ryushare uploaded keep2share

Taissia A – Bed of Roses

Free High Quality Sex Movies 1788 ryushare uploaded keep2share

Free High Quality Sex Movies 1788

sex mkv movies hd 226711 ryushare uploaded keep2share

sex mkv movies hd 226711

Tube Young Sex 1406 ryushare uploaded keep2share

Tube Young Sex 1406

Hot Teen Sex 5051 ryushare uploaded keep2share

Hot Teen Sex 5051

purn 720 com ryushare uploaded keep2share

purn 720 com

Good Teen Tube Sexy Young Naked Girls Movies 2795 ryushare uploaded keep2share

Good Teen Tube Sexy Young Naked Girls Movies 2795

free sex tubes direct download 226472 ryushare uploaded keep2share

free sex tubes direct download 226472

Porn teen hd downloads 5641 ryushare uploaded keep2share

Porn teen hd downloads 5641

Sex videos hd for pc ryushare uploaded keep2share

Sex videos hd for pc

HD Porn Teen Sex Videos 4207 ryushare uploaded keep2share

HD Porn Teen Sex Videos 4207

tits free ryushare uploaded keep2share

tits free

Yes Xxx Long Videos High Difinition Porn Movies 226690 ryushare uploaded keep2share

Yes Xxx Long Videos High Difinition Porn Movies 226690

Young Sex Movies 225730 ryushare uploaded keep2share

Young Sex Movies 225730

[SellYourGF.com] Chanel Lux – I got a hot gf you can fuck ryushare uploaded keep2share

[SellYourGF.com] Chanel Lux – I got a hot gf you can fuck

PC HD MP4 XXX COM 226748 ryushare uploaded keep2share

PC HD MP4 XXX COM 226748

Wow porn hd downloads 225829 ryushare uploaded keep2share

Wow porn hd downloads 225829

Angel-Desert – Publics Pizzeria – Il Gusto ryushare uploaded keep2share

Angel-Desert – Publics Pizzeria – Il Gusto

HD Teen Sex Tube 1330 ryushare uploaded keep2share

HD Teen Sex Tube 1330

Teen Sex Videos Tube Movies 3941 ryushare uploaded keep2share

Teen Sex Videos Tube Movies 3941

Girls sex art hd teens videos 5470 ryushare uploaded keep2share

Girls sex art hd teens videos 5470

HD sex movies downloads 3688 ryushare uploaded keep2share

HD sex movies downloads 3688

hi sex movies download in hq 226295 ryushare uploaded keep2share

hi sex movies download in hq 226295

www grils porn teen donlwod full jd moves 226395 ryushare uploaded keep2share

www grils porn teen donlwod full jd moves 226395

Teen Sex Movies Young Porn Tube Vids 224709 ryushare uploaded keep2share

Teen Sex Movies Young Porn Tube Vids 224709

18YearOld.com Alexis Adams – Blonde Teen ryushare uploaded keep2share

18YearOld.com Alexis Adams – Blonde Teen

Wow Porn Movies download) 224417 ryushare uploaded keep2share

Wow Porn Movies download) 224417

Wow porn hd downloads 224563 ryushare uploaded keep2share

Wow porn hd downloads 224563

1280*720hd sex vídeo com ryushare uploaded keep2share

1280*720hd sex vídeo com

Report broken links / Post a comment

You must be logged in to post a comment.



General\r\nComplete name : D:hd pornstars teens ryushare.com uploaded.net keep2share.cc fileom.com streamcloud.eu allmyvideos.net ul.to download porn movies clips You_Read_Too_Much_HD1080.mp4\r\nFormat : MPEG-4\r\nFormat profile : Base Media\r\nCodec ID : isom\r\nFile size : 595 MiB\r\nDuration : 24mn 49s\r\nOverall bit rate mode : Variable\r\nOverall bit rate : 3 348 Kbps\r\nEncoded date : UTC 1970-01-01 00:00:00\r\nTagged date : UTC 1970-01-01 00:00:00\r\nWriting application : Lavf52.64.2\r\n\r\nVideo\r\nID : 1\r\nFormat : AVC\r\nFormat/Info : Advanced Video Codec\r\nFormat profile : [email protected]\r\nFormat settings, CABAC : Yes\r\nFormat settings, ReFrames : 2 frames\r\nCodec ID : avc1\r\nCodec ID/Info : Advanced Video Coding\r\nDuration : 24mn 49s\r\nBit rate : 3 192 Kbps\r\nWidth : 1 920 pixels\r\nHeight : 1 080 pixels\r\nDisplay aspect ratio : 16:9\r\nFrame rate mode : Constant\r\nFrame rate : 23.976 fps\r\nColor space : YUV\r\nChroma subsampling : 4:2:0\r\nBit depth : 8 bits\r\nScan type : Progressive\r\nBits/(Pixel*Frame) : 0.064\r\nStream size : 567 MiB (95%)\r\nWriting library : x264 core 102 r1666 d058f37\r\nEncoding settings : cabac=1 / ref=2 / deblock=1:0:0 / analyse=0x3:0x113 / me=hex / subme=6 / psy=1 / psy_rd=1.00:0.00 / mixed_ref=0 / me_range=16 / chroma_me=1 / trellis=0 / 8x8dct=1 / cqm=0 / deadzone=21,11 / fast_pskip=1 / chroma_qp_offset=-2 / threads=24 / sliced_threads=0 / nr=0 / decimate=1 / interlaced=0 / constrained_intra=0 / bframes=3 / b_pyramid=0 / b_adapt=1 / b_bias=0 / direct=3 / weightb=1 / open_gop=0 / weightp=2 / keyint=250 / keyint_min=25 / scenecut=40 / intra_refresh=0 / rc_lookahead=40 / rc=crf / mbtree=1 / crf=20.0 / qcomp=0.60 / qpmin=10 / qpmax=51 / qpstep=4 / ip_ratio=1.41 / aq=1:1.00\r\nEncoded date : UTC 1970-01-01 00:00:00\r\nTagged date : UTC 1970-01-01 00:00:00\r\n\r\nAudio\r\nID : 2\r\nFormat : AAC\r\nFormat/Info : Advanced Audio Codec\r\nFormat profile : LC\r\nCodec ID : 40\r\nDuration : 24mn 49s\r\nBit rate mode : Variable\r\nBit rate : 151 Kbps\r\nChannel(s) : 2 channels\r\nChannel positions : Front: L R\r\nSampling rate : 44.1 KHz\r\nCompression mode : Lossy\r\nStream size : 26.9 MiB (5%)\r\nEncoded date : UTC 1970-01-01 00:00:00\r\nTagged date : UTC 1970-01-01 00:00:00\r\n\r\n UPLOADED / RYUSHARE / FILEOM / KEEP2SHARE\r\n\r\nhd pornstars teens ryushare.com uploaded.net keep2share.cc fileom.com streamcloud.eu allmyvideos.net ul.to download porn movies clips