HD Sex World Videos High Definition Free Porn 1554

Hd quality - Teen sex video 1557HD Porn Video 1552

Posted in Amateur, HD Porn, Sex Movies, Teen | 214086 Views |


Rate this girl !!!




\r\n\r\nhttp://img56.imagetwist.com/i/05234/ialimk61n16u.jpg\r\n\r\n Link(718 Mb||31:53||960*540||WMV)



DOWNLOAD

Keep2share.cc - Uploaded.net - Openload.co - Rapidu.net


http://keep2share.cc/file/43ded88d81bac
http://ryushare.com/6ix4a7dteagu/WBCSRNty.rar
http://ul.to/j0alkjmu


Premium here:
uploaded.net
keep2share.cc
rapidu.net.cc


Teens related to HD Sex World Videos High Definition Free Porn 1554


www hd xvideos hardcore teeny girl ryushare uploaded keep2share

www hd xvideos hardcore teeny girl

Hot brunette blowjob ryushare uploaded keep2share

Hot brunette blowjob

Porno movies young teens lesbian 5412 ryushare uploaded keep2share

Porno movies young teens lesbian 5412

HD Porn Videos 4503 ryushare uploaded keep2share

HD Porn Videos 4503

21Naturals.com Ivana Sugar – Urges ryushare uploaded keep2share

21Naturals.com Ivana Sugar – Urges

Movies Young legal porn 5205 ryushare uploaded keep2share

Movies Young legal porn 5205

Fresh Teen Videos 223852 ryushare uploaded keep2share

Fresh Teen Videos 223852

Amazing Outdoors – Beautiful Brunette ryushare uploaded keep2share

Amazing Outdoors – Beautiful Brunette

www xxx hb movi 226762 ryushare uploaded keep2share

www xxx hb movi 226762

Hardcore sex videos in the high definition quality 1934 ryushare uploaded keep2share

Hardcore sex videos in the high definition quality 1934

fast tiam movie hot xxx hd free 226715 ryushare uploaded keep2share

fast tiam movie hot xxx hd free 226715

www xxxfree vedio sexy com 226492 ryushare uploaded keep2share

www xxxfree vedio sexy com 226492

www yes xxx hd downlads 226589 ryushare uploaded keep2share

www yes xxx hd downlads 226589

High Definition Movies on HD Teen Porn XXX Tube 225706 ryushare uploaded keep2share

High Definition Movies on HD Teen Porn XXX Tube 225706

Porno movies young teens lesbian 5245 ryushare uploaded keep2share

Porno movies young teens lesbian 5245

Jessie Volt, Sierra Nevadah – Blonde Seduction ryushare uploaded keep2share

Jessie Volt, Sierra Nevadah – Blonde Seduction

Teens sex mania 223990 ryushare uploaded keep2share

Teens sex mania 223990

Teen Tits Tube, Young Girls Porn Videos 5028 ryushare uploaded keep2share

Teen Tits Tube, Young Girls Porn Videos 5028

Wow porn tube movies 4428 ryushare uploaded keep2share

Wow porn tube movies 4428

Teen Tits Tube, Young Girls Porn Videos 1565 ryushare uploaded keep2share

Teen Tits Tube, Young Girls Porn Videos 1565

HD Porn Videos 3003 ryushare uploaded keep2share

HD Porn Videos 3003

sexHD videos mkv ryushare uploaded keep2share

sexHD videos mkv

[AbbyWinters.com] Sasha R. ryushare uploaded keep2share

[AbbyWinters.com] Sasha R.

HD Porn Video 224842 ryushare uploaded keep2share

HD Porn Video 224842

Free Young Porn Videos XXX Teen Porn 2569 ryushare uploaded keep2share

Free Young Porn Videos XXX Teen Porn 2569

Hot Teen Sex 224365 ryushare uploaded keep2share

Hot Teen Sex 224365

Kaylee Haze – Wet Pussy Play ryushare uploaded keep2share

Kaylee Haze – Wet Pussy Play

The best Teen sex 3727 ryushare uploaded keep2share

The best Teen sex 3727

[SellYourGF.com] Jade, Asa Belle – Fucked by the husband’s boss ryushare uploaded keep2share

[SellYourGF.com] Jade, Asa Belle – Fucked by the husband’s boss

HD Porn Teen Sex Videos 3959 ryushare uploaded keep2share

HD Porn Teen Sex Videos 3959

teens handjob porn ryushare uploaded keep2share

teens handjob porn

Sex Teens porn movies 4742 ryushare uploaded keep2share

Sex Teens porn movies 4742

First time Sexual Films 18 sex xxx 225796 ryushare uploaded keep2share

First time Sexual Films 18 sex xxx 225796

HD Porn Teen Sex Videos 224669 ryushare uploaded keep2share

HD Porn Teen Sex Videos 224669

College Teen Sex 2160 ryushare uploaded keep2share

College Teen Sex 2160

Comments (1)

Report broken links / Post a comment

You must be logged in to post a comment.



General\r\nComplete name : D:HD Teens Download Porn Sex clips movies Tube.xxxWBCSRNtyWBCSRNty.wmv\r\nFormat : Windows Media\r\nFile size : 718 MiB\r\nDuration : 31mn 53s\r\nOverall bit rate mode : Constant\r\nOverall bit rate : 3 148 Kbps\r\nMaximum Overall bit rate : 3 172 Kbps\r\nEncoded date : UTC 2011-06-29 02:26:41.554\r\nSfOriginalFPS : 250000\r\n\r\nVideo\r\nID : 2\r\nFormat : VC-1\r\nFormat profile : [email protected]\r\nCodec ID : WMV3\r\nCodec ID/Info : Windows Media Video 9\r\nCodec ID/Hint : WMV3\r\nDescription of the codec : Windows Media Video 9 - Professional\r\nDuration : 31mn 53s\r\nBit rate mode : Constant\r\nBit rate : 3 130 Kbps\r\nWidth : 960 pixels\r\nHeight : 540 pixels\r\nDisplay aspect ratio : 16:9\r\nFrame rate : 25.000 fps\r\nColor space : YUV\r\nChroma subsampling : 4:2:0\r\nBit depth : 8 bits\r\nScan type : Progressive\r\nCompression mode : Lossy\r\nBits/(Pixel*Frame) : 0.241\r\nStream size : 714 MiB (99%)\r\nLanguage : Russian\r\n\r\nAudio\r\nID : 1\r\nFormat : WMA\r\nFormat version : Version 2\r\nCodec ID : 161\r\nCodec ID/Info : Windows Media Audio\r\nDescription of the codec : Windows Media Audio 9.2 - 16 kbps, 22 kHz, mono (A/V) 1-pass CBR\r\nDuration : 31mn 53s\r\nBit rate mode : Constant\r\nBit rate : 16.0 Kbps\r\nChannel(s) : 1 channel\r\nSampling rate : 22.05 KHz\r\nBit depth : 16 bits\r\nStream size : 3.66 MiB (1%)\r\nLanguage : Russian\r\n\r\n