HD Sex World Videos High Definition Free Porn 1604

Teen porn movies 1607Teenies Videos - Teen Porn, Teen Sex, XXX Free Videos 1601

Posted in Amateur, HD Porn, Sex Movies, Teen | 11222 Views |


Rate this girl !!!




\r\n\r\n \r\n\r\nhttp://img102.imagetwist.com/i/05246/rx2m0taglofv.jpeg\r\n\r\n Link(435 Mb||19:24||720*576||MP4) \r\n\r\nFull Siterip Part1\r\n\r\nFull Siterip Part2\r\n\r\nFull Siterip Part3\r\n\r\n 



DOWNLOAD

Keep2share.cc - Uploaded.net - Openload.co - Rapidu.net


http://keep2share.cc/file/cd0fbe72dd4f3
http://ryushare.com/fokum00uvux8/CBSNGRlv.rar
http://ul.to/s2v86miy


Premium here:
uploaded.net
keep2share.cc
rapidu.net.cc


Teens related to HD Sex World Videos High Definition Free Porn 1604


New sexy video pc hd ryushare uploaded keep2share

New sexy video pc hd

Chelsea – First & Forever ryushare uploaded keep2share

Chelsea – First & Forever

First time Sexual Films 18 sex xxx 4718 ryushare uploaded keep2share

First time Sexual Films 18 sex xxx 4718

film sexx japan hd mqnia 226026 ryushare uploaded keep2share

film sexx japan hd mqnia 226026

Babes.com Nataly Gold, Silvia Lauren – A guiding hand ryushare uploaded keep2share

Babes.com Nataly Gold, Silvia Lauren – A guiding hand

Watch Teen Sex Videos HD 225256 ryushare uploaded keep2share

Watch Teen Sex Videos HD 225256

Young Virgin Pussy Teen Fuck Tube 224968 ryushare uploaded keep2share

Young Virgin Pussy Teen Fuck Tube 224968

xxxvedio HD 18 year download ryushare uploaded keep2share

xxxvedio HD 18 year download

Hot download sex girls movies 225718 ryushare uploaded keep2share

Hot download sex girls movies 225718

Free High Quality Sex Movies 3471 ryushare uploaded keep2share

Free High Quality Sex Movies 3471

Movies Young legal porn 225237 ryushare uploaded keep2share

Movies Young legal porn 225237

Young Sex Movies 3635 ryushare uploaded keep2share

Young Sex Movies 3635

Hot Teen Sex HD videos 225047 ryushare uploaded keep2share

Hot Teen Sex HD videos 225047

HQ Sex Movies Download 4353 ryushare uploaded keep2share

HQ Sex Movies Download 4353

teen porn hard fuck pics 226127 ryushare uploaded keep2share

teen porn hard fuck pics 226127

HD Teen Sex Tube 223714 ryushare uploaded keep2share

HD Teen Sex Tube 223714

TrickyMasseur.com Isabeli ryushare uploaded keep2share

TrickyMasseur.com Isabeli

Hardcore sex videos in the high definition quality 225432 ryushare uploaded keep2share

Hardcore sex videos in the high definition quality 225432

Tube Young Sex Amateur Orgy 4891 ryushare uploaded keep2share

Tube Young Sex Amateur Orgy 4891

Young Virgin Pussy Teen Fuck Tube 3398 ryushare uploaded keep2share

Young Virgin Pussy Teen Fuck Tube 3398

Teen porn movies 224851 ryushare uploaded keep2share

Teen porn movies 224851

Good Teen Tube Sexy Young Naked Girls Movies 224527 ryushare uploaded keep2share

Good Teen Tube Sexy Young Naked Girls Movies 224527

Xxx x uploded haigh quality photos 226705 ryushare uploaded keep2share

Xxx x uploded haigh quality photos 226705

wow so hot movies hd faapy xxx com ryushare uploaded keep2share

wow so hot movies hd faapy xxx com

Klixen Cindy Hope & Cipriana ryushare uploaded keep2share

Klixen Cindy Hope & Cipriana

Teen xxx sex hd 225800 ryushare uploaded keep2share

Teen xxx sex hd 225800

Teens in Porno young porn videos and free teen sex 5495 ryushare uploaded keep2share

Teens in Porno young porn videos and free teen sex 5495

Hd young videos 1872 ryushare uploaded keep2share

Hd young videos 1872

Ibiza Party – Teens Sex ryushare uploaded keep2share

Ibiza Party – Teens Sex

Free High Quality Sex Movies 225595 ryushare uploaded keep2share

Free High Quality Sex Movies 225595

HD Teen Sex Tube 224893 ryushare uploaded keep2share

HD Teen Sex Tube 224893

vargin fuck Hd video dwonlod ryushare uploaded keep2share

vargin fuck Hd video dwonlod

Porn HQ Movei free downlode ryushare uploaded keep2share

Porn HQ Movei free downlode

Hardcore Sex Hub 5391 ryushare uploaded keep2share

Hardcore Sex Hub 5391

Young Sex Movies 2737 ryushare uploaded keep2share

Young Sex Movies 2737

Report broken links / Post a comment

You must be logged in to post a comment.



General\r\nComplete name : D:HD Teens Download Porn Sex clips movies Tube.xxxCBSNGRlvCBSNGRlv.mp4\r\nFormat : MPEG-4\r\nFormat profile : Base Media / Version 2\r\nCodec ID : mp42\r\nFile size : 435 MiB\r\nDuration : 19mn 25s\r\nOverall bit rate mode : Variable\r\nOverall bit rate : 3 134 Kbps\r\nEncoded date : UTC 2014-01-22 09:06:50\r\nTagged date : UTC 2014-01-22 09:06:50\r\nWriting library : Apple QuickTime\r\n\r\nVideo\r\nID : 1\r\nFormat : AVC\r\nFormat/Info : Advanced Video Codec\r\nFormat profile : [email protected]\r\nFormat settings, CABAC : No\r\nFormat settings, ReFrames : 3 frames\r\nCodec ID : avc1\r\nCodec ID/Info : Advanced Video Coding\r\nDuration : 19mn 25s\r\nSource duration : 19mn 24s\r\nBit rate mode : Variable\r\nBit rate : 2 873 Kbps\r\nMaximum bit rate : 3 000 Kbps\r\nWidth : 720 pixels\r\nHeight : 576 pixels\r\nDisplay aspect ratio : 4:3\r\nFrame rate mode : Constant\r\nFrame rate : 25.000 fps\r\nStandard : Component\r\nColor space : YUV\r\nChroma subsampling : 4:2:0\r\nBit depth : 8 bits\r\nScan type : Progressive\r\nBits/(Pixel*Frame) : 0.277\r\nStream size : 399 MiB (92%)\r\nSource stream size : 417 MiB (96%)\r\nLanguage : English\r\nEncoded date : UTC 2014-01-22 09:06:50\r\nTagged date : UTC 2014-01-22 09:06:50\r\nmdhd_Duration : 1165000\r\n\r\nAudio\r\nID : 2\r\nFormat : AAC\r\nFormat/Info : Advanced Audio Codec\r\nFormat profile : LC\r\nCodec ID : 40\r\nDuration : 19mn 24s\r\nBit rate mode : Variable\r\nBit rate : 128 Kbps\r\nMaximum bit rate : 134 Kbps\r\nChannel(s) : 2 channels\r\nChannel positions : Front: L R\r\nSampling rate : 44.1 KHz\r\nCompression mode : Lossy\r\nStream size : 17.8 MiB (4%)\r\nLanguage : English\r\nEncoded date : UTC 2014-01-22 09:06:50\r\nTagged date : UTC 2014-01-22 09:06:50\r\n\r\n