HD Teen Sex Tube 1346

HD Porn Video 1352Adult Hardcore XXX Sex Videos 1343

Posted in HD Porn, Pornstar, Sex Movies, Teen | 13509 Views |


Rate this girl !!!




\r\n\r\n\r\n\r\n\r\nhttp://img102.imagetwist.com/i/05197/y1u5l3682wmf.jpeg\r\n\r\n Link(729 Mb||22:40||1920*1080||MP4)



DOWNLOAD

Keep2share.cc - Uploaded.net - Openload.co - Rapidu.net


http://ul.to/4q6neirs
http://ryushare.com/eas5ant2ue4e/SPNDTMfn.rar
http://keep2share.cc/file/160e4349fe7a3


Premium here:
uploaded.net
keep2share.cc
rapidu.net.cc


Teens related to HD Teen Sex Tube 1346


Wow Girls Porn Clips download 224521 ryushare uploaded keep2share

Wow Girls Porn Clips download 224521

Cute face hot pussy – Angel Hot ryushare uploaded keep2share

Cute face hot pussy – Angel Hot

Teen porn xxx 224307 ryushare uploaded keep2share

Teen porn xxx 224307

Xxxxx suan mp4 226337 ryushare uploaded keep2share

Xxxxx suan mp4 226337

www HD SCORE PLAY VERONIKA PORN FULL VIDEOS FREE DOWUNLOD COM ryushare uploaded keep2share

www HD SCORE PLAY VERONIKA PORN FULL VIDEOS FREE DOWUNLOD COM

Porn HD Sex HD Teen Sex 2573 ryushare uploaded keep2share

Porn HD Sex HD Teen Sex 2573

xxx www888 ryushare uploaded keep2share

xxx www888

Hot brunette – blowjob and fucked ryushare uploaded keep2share

Hot brunette – blowjob and fucked

Teens in Porno young porn videos and free teen sex 5495 ryushare uploaded keep2share

Teens in Porno young porn videos and free teen sex 5495

HD Teen Sex Tube 1451 ryushare uploaded keep2share

HD Teen Sex Tube 1451

www hd teen movie download com 226210 ryushare uploaded keep2share

www hd teen movie download com 226210

SexArt.com Ivana Sugar & Vanda Lust – Rain ryushare uploaded keep2share

SexArt.com Ivana Sugar & Vanda Lust – Rain

HD Porn Teen Sex Videos 225484 ryushare uploaded keep2share

HD Porn Teen Sex Videos 225484

Wow Girls Porn Clips download 225097 ryushare uploaded keep2share

Wow Girls Porn Clips download 225097

HD Porn Videos 1376 ryushare uploaded keep2share

HD Porn Videos 1376

xxcsex video ryushare uploaded keep2share

xxcsex video

Hardcore sex videos in the high definition quality 5010 ryushare uploaded keep2share

Hardcore sex videos in the high definition quality 5010

Tube Young Sex 224693 ryushare uploaded keep2share

Tube Young Sex 224693

Kaliiirose fucking 226142 ryushare uploaded keep2share

Kaliiirose fucking 226142

HD Teen Sex Tube 224893 ryushare uploaded keep2share

HD Teen Sex Tube 224893

Wow porn tube movies 4671 ryushare uploaded keep2share

Wow porn tube movies 4671

fucking pix hd download ryushare uploaded keep2share

fucking pix hd download

First time Sexual Films 18 sex xxx 2101 ryushare uploaded keep2share

First time Sexual Films 18 sex xxx 2101

Jenny Glam – Who’s My Good Girl? ryushare uploaded keep2share

Jenny Glam – Who’s My Good Girl?

Hardcore sex videos in the high definition quality 224111 ryushare uploaded keep2share

Hardcore sex videos in the high definition quality 224111

HD Porn Videos 5360 ryushare uploaded keep2share

HD Porn Videos 5360

Wow porn tube movies 224325 ryushare uploaded keep2share

Wow porn tube movies 224325

Wow girls porn teens 2761 ryushare uploaded keep2share

Wow girls porn teens 2761

Monroe – Sweet And Tender ryushare uploaded keep2share

Monroe – Sweet And Tender

Low mb full hd sex video download 226510 ryushare uploaded keep2share

Low mb full hd sex video download 226510

Small girls and boys porn 3443 ryushare uploaded keep2share

Small girls and boys porn 3443

Download young porn sex 225038 ryushare uploaded keep2share

Download young porn sex 225038

Hot Teen Sex HD videos 1292 ryushare uploaded keep2share

Hot Teen Sex HD videos 1292

HD Porn Video 1421 ryushare uploaded keep2share

HD Porn Video 1421

virgin fuck girl clips 226391 ryushare uploaded keep2share

virgin fuck girl clips 226391

Report broken links / Post a comment

You must be logged in to post a comment.



General\r\nComplete name : D:HD Teens Tube Download Porn Sex clips movies.xxxSPNDTMfnSPNDTMfn.mp4\r\nFormat : MPEG-4\r\nFormat profile : Base Media\r\nCodec ID : isom\r\nFile size : 729 MiB\r\nDuration : 22mn 40s\r\nOverall bit rate mode : Variable\r\nOverall bit rate : 4 493 Kbps\r\nWriting application : Lavf52.64.2\r\n\r\nVideo\r\nID : 1\r\nFormat : AVC\r\nFormat/Info : Advanced Video Codec\r\nFormat profile : [email protected]\r\nFormat settings, CABAC : Yes\r\nFormat settings, ReFrames : 2 frames\r\nCodec ID : avc1\r\nCodec ID/Info : Advanced Video Coding\r\nDuration : 22mn 40s\r\nBit rate : 4 402 Kbps\r\nWidth : 1 920 pixels\r\nHeight : 1 080 pixels\r\nDisplay aspect ratio : 16:9\r\nFrame rate mode : Constant\r\nFrame rate : 29.970 fps\r\nColor space : YUV\r\nChroma subsampling : 4:2:0\r\nBit depth : 8 bits\r\nScan type : Progressive\r\nBits/(Pixel*Frame) : 0.071\r\nStream size : 714 MiB (98%)\r\nWriting library : x264 core 102 r1666 d058f37\r\nEncoding settings : cabac=1 / ref=2 / deblock=1:0:0 / analyse=0x3:0x113 / me=hex / subme=6 / psy=1 / psy_rd=1.00:0.00 / mixed_ref=0 / me_range=16 / chroma_me=1 / trellis=0 / 8x8dct=1 / cqm=0 / deadzone=21,11 / fast_pskip=1 / chroma_qp_offset=-2 / threads=24 / sliced_threads=0 / nr=0 / decimate=1 / interlaced=0 / constrained_intra=0 / bframes=3 / b_pyramid=0 / b_adapt=1 / b_bias=0 / direct=3 / weightb=1 / open_gop=0 / weightp=2 / keyint=250 / keyint_min=25 / scenecut=40 / intra_refresh=0 / rc_lookahead=40 / rc=crf / mbtree=1 / crf=20.0 / qcomp=0.60 / qpmin=10 / qpmax=51 / qpstep=4 / ip_ratio=1.41 / aq=1:1.00\r\n\r\nAudio\r\nID : 2\r\nFormat : AAC\r\nFormat/Info : Advanced Audio Codec\r\nFormat profile : LC\r\nCodec ID : 40\r\nDuration : 22mn 40s\r\nBit rate mode : Variable\r\nBit rate : 85.7 Kbps\r\nChannel(s) : 2 channels\r\nChannel positions : Front: L R\r\nSampling rate : 44.1 KHz\r\nCompression mode : Lossy\r\nStream size : 13.9 MiB (2%)\r\n\r\n