HD Teens Sex Tube Videos XxX 1157

HD Teen Sex Tube 1160Hot Teen Sex HD videos 1149

Posted in HD Porn, Sex Movies, Teen | 60239 Views |


Rate this girl !!!




\r\n\r\nhttp://img101.imagetwist.com/i/05163/58yqcjngole9.jpeg\r\n\r\n Link(570 Mb||35:41||854*480||MP4)



DOWNLOAD

Keep2share.cc - Uploaded.net - Openload.co - Rapidu.net


http://ul.to/tractyi0
http://ryushare.com/abourjkueb30/SHGNRSgr.rar
http://keep2share.cc/file/52efa0b9544dc


Premium here:
uploaded.net
keep2share.cc
rapidu.net.cc


Teens related to HD Teens Sex Tube Videos XxX 1157


Young Sex Movies 225934 ryushare uploaded keep2share

Young Sex Movies 225934

Teen Sex Movies 223765 ryushare uploaded keep2share

Teen Sex Movies 223765

Nude Teens fucking hard 1613 ryushare uploaded keep2share

Nude Teens fucking hard 1613

download video bf sex full hd hq ryushare uploaded keep2share

download video bf sex full hd hq

Young Virgin Pussy Teen Fuck Tube 4173 ryushare uploaded keep2share

Young Virgin Pussy Teen Fuck Tube 4173

Kennedy Leigh & Thomas – Date Night ryushare uploaded keep2share

Kennedy Leigh & Thomas – Date Night

Nude Teens fucking hard 225614 ryushare uploaded keep2share

Nude Teens fucking hard 225614

Sweet Teen Porn – Young Porn Videos 4327 ryushare uploaded keep2share

Sweet Teen Porn – Young Porn Videos 4327

Young 720p hd porn 4581 ryushare uploaded keep2share

Young 720p hd porn 4581

xxx videos hd 1280p com ryushare uploaded keep2share

xxx videos hd 1280p com

Movies Young legal porn 224470 ryushare uploaded keep2share

Movies Young legal porn 224470

HD Porn Teen Sex Videos 225071 ryushare uploaded keep2share

HD Porn Teen Sex Videos 225071

teen pornosu indir mp4 ryushare uploaded keep2share

teen pornosu indir mp4

Tube xxx 223900 ryushare uploaded keep2share

Tube xxx 223900

sex wwwxxx xcxx ryushare uploaded keep2share

sex wwwxxx xcxx

Uploaded net porn 2517 ryushare uploaded keep2share

Uploaded net porn 2517

Young XXX Tube Videos 2696 ryushare uploaded keep2share

Young XXX Tube Videos 2696

Katarinka – Russian Teen – Pack 45 clips ryushare uploaded keep2share

Katarinka – Russian Teen – Pack 45 clips

HD Porn Videos 2925 ryushare uploaded keep2share

HD Porn Videos 2925

Teenage Fuck Clips 4414 ryushare uploaded keep2share

Teenage Fuck Clips 4414

Hot hd teen sex videos 4751 ryushare uploaded keep2share

Hot hd teen sex videos 4751

Hardcore sex videos in the high definition quality 2374 ryushare uploaded keep2share

Hardcore sex videos in the high definition quality 2374

Sex Teens porn movies 2846 ryushare uploaded keep2share

Sex Teens porn movies 2846

Hot download sex girls movies 225718 ryushare uploaded keep2share

Hot download sex girls movies 225718

Teen porn movies 3006 ryushare uploaded keep2share

Teen porn movies 3006

Jungal PornStars Sex 226234 ryushare uploaded keep2share

Jungal PornStars Sex 226234

Sweet Teen Porn – Young Porn Videos 224494 ryushare uploaded keep2share

Sweet Teen Porn – Young Porn Videos 224494

HD Sex World Videos High Definition Free Porn 5561 ryushare uploaded keep2share

HD Sex World Videos High Definition Free Porn 5561

full hd smooth sex videos 226484 ryushare uploaded keep2share

full hd smooth sex videos 226484

xxx video hd romantik downlod ryushare uploaded keep2share

xxx video hd romantik downlod

Teen Sex Videos Tube Movies 1466 ryushare uploaded keep2share

Teen Sex Videos Tube Movies 1466

SexArt.com Dominica Phoenix, Katy Rose, Lexie Dona ryushare uploaded keep2share

SexArt.com Dominica Phoenix, Katy Rose, Lexie Dona

Connie Stay by my Woman – YoungLegalPorn ryushare uploaded keep2share

Connie Stay by my Woman – YoungLegalPorn

porn HD anfisa argentina ryushare uploaded keep2share

porn HD anfisa argentina

Teen Porn XXX Tube 225861 ryushare uploaded keep2share

Teen Porn XXX Tube 225861

Report broken links / Post a comment

You must be logged in to post a comment.



General\r\nComplete name : D:HD TeenMania Porn Sex videosxxxSHGNRSgrSHGNRSgr.mp4\r\nFormat : MPEG-4\r\nFormat profile : Base Media\r\nCodec ID : isom\r\nFile size : 570 MiB\r\nDuration : 35mn 41s\r\nOverall bit rate : 2 234 Kbps\r\nWriting application : Lavf54.37.100\r\n\r\nVideo\r\nID : 1\r\nFormat : AVC\r\nFormat/Info : Advanced Video Codec\r\nFormat profile : [email protected]\r\nFormat settings, CABAC : Yes\r\nFormat settings, ReFrames : 5 frames\r\nCodec ID : avc1\r\nCodec ID/Info : Advanced Video Coding\r\nDuration : 35mn 41s\r\nBit rate : 2 000 Kbps\r\nWidth : 854 pixels\r\nHeight : 480 pixels\r\nDisplay aspect ratio : 16:9\r\nFrame rate mode : Constant\r\nFrame rate : 29.970 fps\r\nColor space : YUV\r\nChroma subsampling : 4:2:0\r\nBit depth : 8 bits\r\nScan type : Progressive\r\nBits/(Pixel*Frame) : 0.163\r\nStream size : 511 MiB (90%)\r\nWriting library : x264 core 128 r2216 198a7ea\r\nEncoding settings : cabac=1 / ref=5 / deblock=1:0:0 / analyse=0x3:0x113 / me=umh / subme=8 / psy=1 / psy_rd=1.00:0.00 / mixed_ref=1 / me_range=16 / chroma_me=1 / trellis=1 / 8x8dct=1 / cqm=0 / deadzone=21,11 / fast_pskip=1 / chroma_qp_offset=-2 / threads=36 / lookahead_threads=6 / sliced_threads=0 / nr=0 / decimate=1 / interlaced=0 / bluray_compat=0 / constrained_intra=0 / bframes=3 / b_pyramid=2 / b_adapt=2 / b_bias=0 / direct=3 / weightb=1 / open_gop=0 / weightp=2 / keyint=60 / keyint_min=6 / scenecut=40 / intra_refresh=0 / rc_lookahead=50 / rc=abr / mbtree=1 / bitrate=2000 / ratetol=1.0 / qcomp=0.60 / qpmin=0 / qpmax=69 / qpstep=4 / ip_ratio=1.40 / aq=1:1.00\r\nTagged date : UTC 2013-02-12 11:32:33\r\n\r\nAudio\r\nID : 2\r\nFormat : AAC\r\nFormat/Info : Advanced Audio Codec\r\nFormat profile : LC\r\nCodec ID : 40\r\nDuration : 35mn 41s\r\nDuration_LastFrame : 33ms\r\nBit rate mode : Constant\r\nBit rate : 128 Kbps\r\nChannel(s) : 2 channels\r\nChannel positions : Front: L R\r\nSampling rate : 48.0 KHz\r\nCompression mode : Lossy\r\nStream size : 32.7 MiB (6%)\r\nTagged date : UTC 2013-02-12 11:32:33\r\n\r\n