Hd young videos 1872

Adult Hardcore XXX Sex Videos 1879Fresh Teen Videos 1868

Posted in HD Porn, Pornstar, Sex Movies, Teen, Threesome | 11092 Views |


Rate this girl !!!




\r\n\r\n\r\n\r\n\r\n\r\nhttp://img102.imagetwist.com/i/05289/av91jjoivyjg.jpeg\r\n\r\n Link(520 Mb||24:04||1920*1080||MP4)



DOWNLOAD

Keep2share.cc - Uploaded.net - Openload.co - Rapidu.net


http://keep2share.cc/file/ff5d032a2f622
http://ryushare.com/fcozz2t17uz4/TRNBMRbl.rar
http://ul.to/c9djcuo7


Premium here:
uploaded.net
keep2share.cc
rapidu.net.cc


Teens related to Hd young videos 1872


HD Teens Sex Tube Videos XxX 223808 ryushare uploaded keep2share

HD Teens Sex Tube Videos XxX 223808

XXX/H/XX/ ryushare uploaded keep2share

XXX/H/XX/

Nomi – Bikini Land ryushare uploaded keep2share

Nomi – Bikini Land

HD Teens Sex Tube Videos XxX 225747 ryushare uploaded keep2share

HD Teens Sex Tube Videos XxX 225747

AbbyWinters.com – Carmina & Pablo ryushare uploaded keep2share

AbbyWinters.com – Carmina & Pablo

Bella Baby – Opposites Attract ryushare uploaded keep2share

Bella Baby – Opposites Attract

xxx com full pc Hd video 720p ryushare uploaded keep2share

xxx com full pc Hd video 720p

My bigtits girlfriend fornication – in the sack ryushare uploaded keep2share

My bigtits girlfriend fornication – in the sack

BRAZZERS sex hd videos download ryushare uploaded keep2share

BRAZZERS sex hd videos download

www hd brazzers sex in com 226593 ryushare uploaded keep2share

www hd brazzers sex in com 226593

Kathia Nobili, Meg Magic – Low Self-Esteem ryushare uploaded keep2share

Kathia Nobili, Meg Magic – Low Self-Esteem

Silvie Deluxe – Just A Minute ryushare uploaded keep2share

Silvie Deluxe – Just A Minute

xxx hd smoll garls video com ryushare uploaded keep2share

xxx hd smoll garls video com

Teen Sex Videos Tube Movies 1740 ryushare uploaded keep2share

Teen Sex Videos Tube Movies 1740

Teen Sex Movies 2122 ryushare uploaded keep2share

Teen Sex Movies 2122

Sweet Teen Porn – Young Porn Videos 3641 ryushare uploaded keep2share

Sweet Teen Porn – Young Porn Videos 3641

College Teen Sex 5458 ryushare uploaded keep2share

College Teen Sex 5458

HD Porn Video 5532 ryushare uploaded keep2share

HD Porn Video 5532

Teen Sex Movies Young Porn Tube Vids 224709 ryushare uploaded keep2share

Teen Sex Movies Young Porn Tube Vids 224709

Small girls and boys porn 4639 ryushare uploaded keep2share

Small girls and boys porn 4639

Good Teen Tube Sexy Young Naked Girls Movies 2541 ryushare uploaded keep2share

Good Teen Tube Sexy Young Naked Girls Movies 2541

Hardcore Sex Hub 224158 ryushare uploaded keep2share

Hardcore Sex Hub 224158

Good Teen Tube Sexy Young Naked Girls Movies 1383 ryushare uploaded keep2share

Good Teen Tube Sexy Young Naked Girls Movies 1383

Hot Teen Sex HD videos 225940 ryushare uploaded keep2share

Hot Teen Sex HD videos 225940

Young Virgin Pussy Teen Fuck Tube 224676 ryushare uploaded keep2share

Young Virgin Pussy Teen Fuck Tube 224676

SEX HD V MOVIE PC COM 226146 ryushare uploaded keep2share

SEX HD V MOVIE PC COM 226146

Teen porn movies 5617 ryushare uploaded keep2share

Teen porn movies 5617

Wow girls downloads hd 224254 ryushare uploaded keep2share

Wow girls downloads hd 224254

fucking sex hd download 226750 ryushare uploaded keep2share

fucking sex hd download 226750

Teen Sex Porn Videos Free Nude Teens 5623 ryushare uploaded keep2share

Teen Sex Porn Videos Free Nude Teens 5623

High Definition Movies on HD Teen Porn XXX Tube 1192 ryushare uploaded keep2share

High Definition Movies on HD Teen Porn XXX Tube 1192

Www kakikata hot xxxbideo com ryushare uploaded keep2share

Www kakikata hot xxxbideo com

HQ hd full xxx video free download 226615 ryushare uploaded keep2share

HQ hd full xxx video free download 226615

High Definition Movies on HD 1283 ryushare uploaded keep2share

High Definition Movies on HD 1283

[AbbyWinters.com] Editors Choice – October 2012 Squirting ryushare uploaded keep2share

[AbbyWinters.com] Editors Choice – October 2012 Squirting

Report broken links / Post a comment

You must be logged in to post a comment.



General\r\nComplete name : D:HD Teens Download Porn Sex clips movies Tube.xxxTRNBMRblTRNBMRbl.mp4\r\nFormat : MPEG-4\r\nFormat profile : Base Media\r\nCodec ID : isom\r\nFile size : 520 MiB\r\nDuration : 24mn 4s\r\nOverall bit rate : 3 022 Kbps\r\nWriting application : Lavf55.12.102\r\n\r\nVideo\r\nID : 1\r\nFormat : AVC\r\nFormat/Info : Advanced Video Codec\r\nFormat profile : [email protected]\r\nFormat settings, CABAC : Yes\r\nFormat settings, ReFrames : 5 frames\r\nCodec ID : avc1\r\nCodec ID/Info : Advanced Video Coding\r\nDuration : 24mn 4s\r\nSource duration : 2mn 35s\r\nBit rate : 2 855 Kbps\r\nWidth : 1 920 pixels\r\nHeight : 1 080 pixels\r\nDisplay aspect ratio : 16:9\r\nFrame rate mode : Constant\r\nFrame rate : 23.976 fps\r\nColor space : YUV\r\nChroma subsampling : 4:2:0\r\nBit depth : 8 bits\r\nScan type : Progressive\r\nBits/(Pixel*Frame) : 0.057\r\nStream size : 492 MiB (95%)\r\nSource stream size : 492 MiB (95%)\r\nWriting library : x264 core 133 r2334 a3ac64b\r\nEncoding settings : cabac=1 / ref=5 / deblock=1:0:0 / analyse=0x3:0x113 / me=umh / subme=8 / psy=1 / psy_rd=1.00:0.00 / mixed_ref=1 / me_range=16 / chroma_me=1 / trellis=1 / 8x8dct=1 / cqm=0 / deadzone=21,11 / fast_pskip=1 / chroma_qp_offset=0 / threads=6 / lookahead_threads=1 / sliced_threads=0 / nr=0 / decimate=1 / interlaced=0 / bluray_compat=0 / constrained_intra=0 / bframes=3 / b_pyramid=2 / b_adapt=2 / b_bias=0 / direct=3 / weightb=1 / open_gop=0 / weightp=2 / keyint=150 / keyint_min=15 / scenecut=40 / intra_refresh=0 / rc_lookahead=50 / rc=crf / mbtree=1 / crf=22.0 / qcomp=0.60 / qpmin=0 / qpmax=69 / qpstep=4 / vbv_maxrate=9000 / vbv_bufsize=9000 / crf_max=0.0 / nal_hrd=none / ip_ratio=1.40 / aq=1:1.00\r\nmdhd_Duration : 1444317\r\n\r\nAudio\r\nID : 2\r\nFormat : AAC\r\nFormat/Info : Advanced Audio Codec\r\nFormat profile : LC\r\nCodec ID : 40\r\nDuration : 24mn 4s\r\nDuration_LastFrame : -10ms\r\nBit rate mode : Constant\r\nBit rate : 160 Kbps\r\nChannel(s) : 2 channels\r\nChannel positions : Front: L R\r\nSampling rate : 44.1 KHz\r\nCompression mode : Lossy\r\nStream size : 27.5 MiB (5%)\r\n\r\n