High Definition Movies on HD 1894

College Teen Sex 1898Hot Teen Sex HD videos 1883

Posted in HD Porn, Pornstar, Sex Movies, Teen | 10660 Views |


Rate this girl !!!




\r\n\r\n\r\nhttp://img103.imagetwist.com/i/05291/tzl9tdmh0efo.jpeg\r\n\r\n Link(650 Mb||22:05||1280*720||WMV)



DOWNLOAD

Keep2share.cc - Uploaded.net - Openload.co - Rapidu.net


http://keep2share.cc/file/f38a8bb7a688a
http://ryushare.com/l87re7dyfpww/TNSMNDnl.rar
http://ul.to/ype9ylkc


Premium here:
uploaded.net
keep2share.cc
rapidu.net.cc


Teens related to High Definition Movies on HD 1894


HD Porn Teen Sex Videos 4268 ryushare uploaded keep2share

HD Porn Teen Sex Videos 4268

Hot Teen Sex 225798 ryushare uploaded keep2share

Hot Teen Sex 225798

Alyona – No Mercy For Your Ass ryushare uploaded keep2share

Alyona – No Mercy For Your Ass

High Definition Movies on HD Teen Porn XXX Tube 1493 ryushare uploaded keep2share

High Definition Movies on HD Teen Porn XXX Tube 1493

Good Teen Tube Sexy Young Naked Girls Movies 225959 ryushare uploaded keep2share

Good Teen Tube Sexy Young Naked Girls Movies 225959

Movies Young legal porn 224470 ryushare uploaded keep2share

Movies Young legal porn 224470

HQ Sex Movies Download 1132 ryushare uploaded keep2share

HQ Sex Movies Download 1132

Hd young videos 4536 ryushare uploaded keep2share

Hd young videos 4536

Good Teen Tube Sexy Young Naked Girls Movies 1380 ryushare uploaded keep2share

Good Teen Tube Sexy Young Naked Girls Movies 1380

yes-xxx-teen-sex-movies ryushare uploaded keep2share

yes-xxx-teen-sex-movies

The best Teen sex 5166 ryushare uploaded keep2share

The best Teen sex 5166

hd sex videos 1080p download for pc ryushare uploaded keep2share

hd sex videos 1080p download for pc

Girls sex art hd teens videos 225709 ryushare uploaded keep2share

Girls sex art hd teens videos 225709

Hot download sex girls movies 225422 ryushare uploaded keep2share

Hot download sex girls movies 225422

Nude Teens fucking hard 2189 ryushare uploaded keep2share

Nude Teens fucking hard 2189

Young 720p hd porn 3975 ryushare uploaded keep2share

Young 720p hd porn 3975

hd sex teen vidio 226777 ryushare uploaded keep2share

hd sex teen vidio 226777

Japanese casting –  Harada Airi ryushare uploaded keep2share

Japanese casting – Harada Airi

Japanese Young teen Amateur ryushare uploaded keep2share

Japanese Young teen Amateur

K Two Teasing Tongues 8 B ryushare uploaded keep2share

K Two Teasing Tongues 8 B

Uploaded net porn XXX 224345 ryushare uploaded keep2share

Uploaded net porn XXX 224345

Teen Sex Porn Videos Free Nude Teens 224533 ryushare uploaded keep2share

Teen Sex Porn Videos Free Nude Teens 224533

Beautifull Blonde Models – Ponstars  Orgy Threesome ryushare uploaded keep2share

Beautifull Blonde Models – Ponstars Orgy Threesome

K Craving Lips 4 – CLIP A ryushare uploaded keep2share

K Craving Lips 4 – CLIP A

High Definition Movies on HD 225408 ryushare uploaded keep2share

High Definition Movies on HD 225408

www xxxx video donlood hd 226672 ryushare uploaded keep2share

www xxxx video donlood hd 226672

Free High Quality Sex Movies 4375 ryushare uploaded keep2share

Free High Quality Sex Movies 4375

Hd xxxvidoes download com 226192 ryushare uploaded keep2share

Hd xxxvidoes download com 226192

Watch Teen Sex Videos HD 1246 ryushare uploaded keep2share

Watch Teen Sex Videos HD 1246

sex full clarety videos 226664 ryushare uploaded keep2share

sex full clarety videos 226664

Young teens tube hot girls free porn video 5527 ryushare uploaded keep2share

Young teens tube hot girls free porn video 5527

sex hd hq download 226383 ryushare uploaded keep2share

sex hd hq download 226383

HQ Sex Movies Download 4735 ryushare uploaded keep2share

HQ Sex Movies Download 4735

short porn movies hd download 226560 ryushare uploaded keep2share

short porn movies hd download 226560

www xxx hot 99 com 226355 ryushare uploaded keep2share

www xxx hot 99 com 226355

Report broken links / Post a comment

You must be logged in to post a comment.



General\r\nComplete name : D:HD Teens Download Porn Sex clips movies Tube.xxxTNSMNDnlTNSMNDnl.wmv\r\nFormat : Windows Media\r\nFile size : 650 MiB\r\nDuration : 22mn 5s\r\nOverall bit rate mode : Constant\r\nOverall bit rate : 4 115 Kbps\r\nMaximum Overall bit rate : 6 321 Kbps\r\nPerformer : Royal-Cash.com\r\nEncoded date : UTC 2014-02-07 15:34:43.580\r\nCopyright : Royal-Cash.com\r\n\r\nVideo\r\nID : 2\r\nFormat : VC-1\r\nFormat profile : [email protected]\r\nCodec ID : WMV3\r\nCodec ID/Info : Windows Media Video 9\r\nCodec ID/Hint : WMV3\r\nDescription of the codec : Windows Media Video 9 - Professional\r\nDuration : 22mn 6s\r\nBit rate mode : Constant\r\nBit rate : 6 144 Kbps\r\nWidth : 1 280 pixels\r\nHeight : 720 pixels\r\nDisplay aspect ratio : 16:9\r\nFrame rate : 25.000 fps\r\nColor space : YUV\r\nChroma subsampling : 4:2:0\r\nBit depth : 8 bits\r\nScan type : Progressive\r\nCompression mode : Lossy\r\nBits/(Pixel*Frame) : 0.267\r\nStream size : 971 MiB\r\nLanguage : Russian\r\nNumberOfFrames : 33138\r\n\r\nAudio\r\nID : 1\r\nFormat : WMA\r\nFormat version : Version 2\r\nCodec ID : 161\r\nCodec ID/Info : Windows Media Audio\r\nDescription of the codec : Windows Media Audio 9.2 - 128 kbps, 44 kHz, stereo 1-pass CBR\r\nDuration : 22mn 5s\r\nBit rate mode : Constant\r\nBit rate : 128 Kbps\r\nChannel(s) : 2 channels\r\nSampling rate : 44.1 KHz\r\nBit depth : 16 bits\r\nStream size : 20.2 MiB (3%)\r\nLanguage : Russian\r\nNumberOfFrames : 3571\r\n\r\n