High Definition Movies on HD 1969

8 Teen XXX - Teen Sex 1972First time Sexual Films 18 sex xxx 1966

Posted in Amateur, HD Porn, Sex Movies, Teen | 5978 Views |


Rate this girl !!!




\r\n\r\nhttp://img56.imagetwist.com/i/05303/tx3kheakh8gt.jpg\r\n\r\n Link(780 Mb||35:25||960*540||WMV)



DOWNLOAD

Keep2share.cc - Uploaded.net - Openload.co - Rapidu.net


Link(780 Mb||35:25||960*540||WMV)


Premium here:
uploaded.net
keep2share.cc
rapidu.net.cc


Teens related to High Definition Movies on HD 1969


jd www xxxhd com ryushare uploaded keep2share

jd www xxxhd com

pc free porn hd ryushare uploaded keep2share

pc free porn hd

Hot Teen Sex 224365 ryushare uploaded keep2share

Hot Teen Sex 224365

Blonde fucked in all holes. Gang Bang ryushare uploaded keep2share

Blonde fucked in all holes. Gang Bang

Hot Tina, Kayla Green – Lessons in Lust ryushare uploaded keep2share

Hot Tina, Kayla Green – Lessons in Lust

Hardcore Sex Hub 225062 ryushare uploaded keep2share

Hardcore Sex Hub 225062

K Daniela – The Hand-foot-clamp ryushare uploaded keep2share

K Daniela – The Hand-foot-clamp

Russian Girls Cumshot Compilation ryushare uploaded keep2share

Russian Girls Cumshot Compilation

Alexis Brill – WUNF 101 ryushare uploaded keep2share

Alexis Brill – WUNF 101

High Definition Movies on HD Teen Porn XXX Tube 1192 ryushare uploaded keep2share

High Definition Movies on HD Teen Porn XXX Tube 1192

Free Porn Videos Xxx Movies Pussy Porn 1549 ryushare uploaded keep2share

Free Porn Videos Xxx Movies Pussy Porn 1549

Www xxx 99net com 226260 ryushare uploaded keep2share

Www xxx 99net com 226260

Nude Teens fucking hard 1320 ryushare uploaded keep2share

Nude Teens fucking hard 1320

www hd sex videos in low mb 226069 ryushare uploaded keep2share

www hd sex videos in low mb 226069

High Definition Movies on HD 224782 ryushare uploaded keep2share

High Definition Movies on HD 224782

Milagres – A Cool Tool For Me ryushare uploaded keep2share

Milagres – A Cool Tool For Me

www 18porn com/hot hd video 226736 ryushare uploaded keep2share

www 18porn com/hot hd video 226736

18 years girl xxx sex videos) 4656 ryushare uploaded keep2share

18 years girl xxx sex videos) 4656

gibitube com porn 226071 ryushare uploaded keep2share

gibitube com porn 226071

Teen Sex Movies Young Porn Tube Vids 2104 ryushare uploaded keep2share

Teen Sex Movies Young Porn Tube Vids 2104

Movies Young legal porn 224165 ryushare uploaded keep2share

Movies Young legal porn 224165

18 years girl xxx sex videos) 4610 ryushare uploaded keep2share

18 years girl xxx sex videos) 4610

Young XXX Tube Videos 3230 ryushare uploaded keep2share

Young XXX Tube Videos 3230

Wow girls hd porn teens 224738 ryushare uploaded keep2share

Wow girls hd porn teens 224738

www sex videosdowanload com 226082 ryushare uploaded keep2share

www sex videosdowanload com 226082

xxx move 4mb 226200 ryushare uploaded keep2share

xxx move 4mb 226200

Hardcore Sex Hub 1665 ryushare uploaded keep2share

Hardcore Sex Hub 1665

very hot pron 226721 ryushare uploaded keep2share

very hot pron 226721

Free High Quality Sex Movies 3816 ryushare uploaded keep2share

Free High Quality Sex Movies 3816

HD porn teen downloads 2715 ryushare uploaded keep2share

HD porn teen downloads 2715

Sweet Teen Porn – Young Porn Videos 4630 ryushare uploaded keep2share

Sweet Teen Porn – Young Porn Videos 4630

HD Teen Sex Tube 1346 ryushare uploaded keep2share

HD Teen Sex Tube 1346

www xxxfree vedio sexy com 226492 ryushare uploaded keep2share

www xxxfree vedio sexy com 226492

Tantric Massage – All Sex HD1080p ryushare uploaded keep2share

Tantric Massage – All Sex HD1080p

Hd young videos 224038 ryushare uploaded keep2share

Hd young videos 224038

Report broken links / Post a comment

You must be logged in to post a comment.



General\r\nComplete name : D:\New folder218SNMHGKlsSNMHGKls.wmv\r\nFormat : Windows Media\r\nFile size : 800 MiB\r\nDuration : 35mn 25s\r\nOverall bit rate mode : Constant\r\nOverall bit rate : 3 157 Kbps\r\nMaximum Overall bit rate : 3 172 Kbps\r\nEncoded date : UTC 2011-03-01 00:49:45.490\r\nSfOriginalFPS : 250000\r\n\r\nVideo\r\nID : 2\r\nFormat : VC-1\r\nFormat profile : [email protected]\r\nCodec ID : WMV3\r\nCodec ID/Info : Windows Media Video 9\r\nCodec ID/Hint : WMV3\r\nDescription of the codec : Windows Media Video 9 - Professional\r\nDuration : 35mn 25s\r\nBit rate mode : Constant\r\nBit rate : 3 130 Kbps\r\nWidth : 960 pixels\r\nHeight : 540 pixels\r\nDisplay aspect ratio : 16:9\r\nFrame rate : 25.000 fps\r\nColor space : YUV\r\nChroma subsampling : 4:2:0\r\nBit depth : 8 bits\r\nScan type : Progressive\r\nCompression mode : Lossy\r\nBits/(Pixel*Frame) : 0.241\r\nStream size : 793 MiB (99%)\r\nLanguage : Russian\r\n\r\nAudio\r\nID : 1\r\nFormat : WMA\r\nFormat version : Version 2\r\nCodec ID : 161\r\nCodec ID/Info : Windows Media Audio\r\nDescription of the codec : Windows Media Audio 9.2 - 16 kbps, 22 kHz, mono (A/V) 1-pass CBR\r\nDuration : 35mn 25s\r\nBit rate mode : Constant\r\nBit rate : 16.0 Kbps\r\nChannel(s) : 1 channel\r\nSampling rate : 22.05 KHz\r\nBit depth : 16 bits\r\nStream size : 4.06 MiB (1%)\r\nLanguage : Russian\r\n\r\n