High Definition Movies on HD Teen Porn XXX Tube 1708

Argentina loves showing off her nice big boobsAdult Hardcore XXX Sex Videos 1705

Posted in Amateur, HD Porn, Sex Movies, Teen | 17757 Views |


Rate this girl !!!




\r\n\r\nhttp://img20.imagetwist.com/i/05264/0bukg3ddg1if.jpeg\r\n\r\n Link(564 Mb||38:41||1024*576||MP4)



DOWNLOAD

Keep2share.cc - Uploaded.net - Openload.co - Rapidu.net


http://keep2share.cc/file/093f626e1c900
http://ryushare.com/xfrn5wn2ppds/PRZDNdr.rar
http://ul.to/sudpwfgi


Premium here:
uploaded.net
keep2share.cc
rapidu.net.cc


Teens related to High Definition Movies on HD Teen Porn XXX Tube 1708


Free Porn Videos Xxx Movies Pussy Porn 224126 ryushare uploaded keep2share

Free Porn Videos Xxx Movies Pussy Porn 224126

Teens sex mania 5553 ryushare uploaded keep2share

Teens sex mania 5553

High Definition Movies on HD 4195 ryushare uploaded keep2share

High Definition Movies on HD 4195

Porno lesbian young teens movies 4143 ryushare uploaded keep2share

Porno lesbian young teens movies 4143

8 Teen XXX – Teen Sex 4550 ryushare uploaded keep2share

8 Teen XXX – Teen Sex 4550

Hot Teen Sex HD videos 225047 ryushare uploaded keep2share

Hot Teen Sex HD videos 225047

Alice March – Smooth as Silk ryushare uploaded keep2share

Alice March – Smooth as Silk

8 Teen XXX – Teen Sex 2973 ryushare uploaded keep2share

8 Teen XXX – Teen Sex 2973

xxx video hd romantik downlod ryushare uploaded keep2share

xxx video hd romantik downlod

Free Porn Videos Xxx Movies Pussy Porn 5701 ryushare uploaded keep2share

Free Porn Videos Xxx Movies Pussy Porn 5701

Free High Quality Sex Movies 1175 ryushare uploaded keep2share

Free High Quality Sex Movies 1175

Wow porn hd downloads 224319 ryushare uploaded keep2share

Wow porn hd downloads 224319

HD porn uploaded 3036 ryushare uploaded keep2share

HD porn uploaded 3036

www xxx hot 99 com 226355 ryushare uploaded keep2share

www xxx hot 99 com 226355

Sex Teens porn movies 4742 ryushare uploaded keep2share

Sex Teens porn movies 4742

Hot sex girls movies download 3874 ryushare uploaded keep2share

Hot sex girls movies download 3874

Young xxx 225712 ryushare uploaded keep2share

Young xxx 225712

Fresh Teen Videos 4156 ryushare uploaded keep2share

Fresh Teen Videos 4156

Tube Young Sex 225873 ryushare uploaded keep2share

Tube Young Sex 225873

8 Teen XXX – Teen Sex 4603 ryushare uploaded keep2share

8 Teen XXX – Teen Sex 4603

High Definition Movies on HD Teen Porn XXX Tube 3621 ryushare uploaded keep2share

High Definition Movies on HD Teen Porn XXX Tube 3621

Amateur Teen Sex 2320 ryushare uploaded keep2share

Amateur Teen Sex 2320

Amateur Teen Sex 224595 ryushare uploaded keep2share

Amateur Teen Sex 224595

xxx vergn 226412 ryushare uploaded keep2share

xxx vergn 226412

hd porn videos in England 226222 ryushare uploaded keep2share

hd porn videos in England 226222

Pretty Little Treasure – BTS ryushare uploaded keep2share

Pretty Little Treasure – BTS

The best Teen sex 225079 ryushare uploaded keep2share

The best Teen sex 225079

short porn movies hd download 226560 ryushare uploaded keep2share

short porn movies hd download 226560

Sweet Teen Porn – Young Porn Videos 3447 ryushare uploaded keep2share

Sweet Teen Porn – Young Porn Videos 3447

xxxx clips hd download 226318 ryushare uploaded keep2share

xxxx clips hd download 226318

TrickyMasseur.com Raquel ryushare uploaded keep2share

TrickyMasseur.com Raquel

vargin fuck Hd video dwonlod ryushare uploaded keep2share

vargin fuck Hd video dwonlod

www pinkwordcom 226327 ryushare uploaded keep2share

www pinkwordcom 226327

Young teens tube hot girls free porn video 5000 ryushare uploaded keep2share

Young teens tube hot girls free porn video 5000

Hd young videos 224038 ryushare uploaded keep2share

Hd young videos 224038

Report broken links / Post a comment

You must be logged in to post a comment.



General\r\nComplete name : D:HD Teens Download Porn Sex clips movies Tube.xxxPRZDNdrPRZDNdr.mp4\r\nFormat : MPEG-4\r\nFormat profile : Base Media / Version 2\r\nCodec ID : mp42\r\nFile size : 564 MiB\r\nDuration : 38mn 41s\r\nOverall bit rate : 2 039 Kbps\r\nEncoded date : UTC 2013-02-08 22:56:54\r\nTagged date : UTC 2013-02-08 22:57:19\r\n\r\nVideo\r\nID : 1\r\nFormat : AVC\r\nFormat/Info : Advanced Video Codec\r\nFormat profile : [email protected]\r\nFormat settings, CABAC : No\r\nFormat settings, ReFrames : 2 frames\r\nFormat settings, GOP : M=1, N=125\r\nCodec ID : avc1\r\nCodec ID/Info : Advanced Video Coding\r\nDuration : 38mn 41s\r\nBit rate : 1 907 Kbps\r\nWidth : 1 024 pixels\r\nHeight : 576 pixels\r\nDisplay aspect ratio : 16:9\r\nFrame rate mode : Constant\r\nFrame rate : 25.000 fps\r\nColor space : YUV\r\nChroma subsampling : 4:2:0\r\nBit depth : 8 bits\r\nScan type : Progressive\r\nBits/(Pixel*Frame) : 0.129\r\nStream size : 528 MiB (94%)\r\nTitle : Apple Video Mediensteuerung\r\nLanguage : English\r\nEncoded date : UTC 2013-02-08 22:56:53\r\nTagged date : UTC 2013-02-08 22:57:19\r\nColor primaries : BT.709\r\nTransfer characteristics : BT.709\r\nMatrix coefficients : BT.709\r\n\r\nAudio\r\nID : 2\r\nFormat : AAC\r\nFormat/Info : Advanced Audio Codec\r\nFormat profile : LC\r\nCodec ID : 40\r\nDuration : 38mn 41s\r\nBit rate mode : Constant\r\nBit rate : 128 Kbps\r\nChannel(s) : 2 channels\r\nChannel positions : Front: L R\r\nSampling rate : 48.0 KHz\r\nCompression mode : Lossy\r\nStream size : 35.4 MiB (6%)\r\nTitle : Apple Ton Mediensteuerung\r\nLanguage : English\r\nEncoded date : UTC 2013-02-08 22:56:53\r\nTagged date : UTC 2013-02-08 22:57:19\r\n\r\n