High Definition Movies on HD Teen Porn XXX Tube 3621

HD Porn Video 3620Hardcore sex videos in the high definition quality 3617

Posted in HD Porn, Pornstar, Sex Movies, Teen | 12963 Views |


Rate this girl !!!




\r\n\r\n7.jpeg\r\n\r\n 



DOWNLOAD

Keep2share.cc - Uploaded.net - Openload.co - Rapidu.net


http://k2s.cc/file/8f5a6235b4163/PCGRSBls.mp4
http://ryushare.com/jsp1r9nteevq/PCGRSBls.mp4
http://ul.to/fi7jwjnl/PCGRSBls.mp4
http://fileom.com/5mrkgcsmgs39/PCGRSBls.mp4.html


Premium here:
uploaded.net
keep2share.cc
rapidu.net.cc


Teens related to High Definition Movies on HD Teen Porn XXX Tube 3621


Susie – Body Language ryushare uploaded keep2share

Susie – Body Language

www xxx hot 18 hd videos com ryushare uploaded keep2share

www xxx hot 18 hd videos com

Www Xxxsex video18 ryushare uploaded keep2share

Www Xxxsex video18

Porn HD Sex HD Teen Sex 4170 ryushare uploaded keep2share

Porn HD Sex HD Teen Sex 4170

Hot Teen Sex 3611 ryushare uploaded keep2share

Hot Teen Sex 3611

Porn HD Sex HD Teen Sex 3480 ryushare uploaded keep2share

Porn HD Sex HD Teen Sex 3480

Wow porn tube movies 224880 ryushare uploaded keep2share

Wow porn tube movies 224880

Watch Teen Sex Videos HD 225363 ryushare uploaded keep2share

Watch Teen Sex Videos HD 225363

HD Teen Sex Tube 5118 ryushare uploaded keep2share

HD Teen Sex Tube 5118

Teen 18 Porn XXX Clips Naked 3589 ryushare uploaded keep2share

Teen 18 Porn XXX Clips Naked 3589

High Definition Movies on HD Teen Porn XXX Tube 1919 ryushare uploaded keep2share

High Definition Movies on HD Teen Porn XXX Tube 1919

YoungLegalPorn Bella Baby And Carla Cox Advanced Bonking ryushare uploaded keep2share

YoungLegalPorn Bella Baby And Carla Cox Advanced Bonking

WowGirls Livia Grace C Getting Off Without A Cock ryushare uploaded keep2share

WowGirls Livia Grace C Getting Off Without A Cock

Teen Sex Movies Young Porn Tube Vids 225825 ryushare uploaded keep2share

Teen Sex Movies Young Porn Tube Vids 225825

First time Sexual Films 18 sex xxx 5710 ryushare uploaded keep2share

First time Sexual Films 18 sex xxx 5710

Hot Teen Sex 2988 ryushare uploaded keep2share

Hot Teen Sex 2988

high quality full 1080 hd sex movies 226540 ryushare uploaded keep2share

high quality full 1080 hd sex movies 226540

Tube Young Sex 224974 ryushare uploaded keep2share

Tube Young Sex 224974

Hot Teen Sex HD videos 1883 ryushare uploaded keep2share

Hot Teen Sex HD videos 1883

phog bf xxx ryushare uploaded keep2share

phog bf xxx

Teen porn movies 1607 ryushare uploaded keep2share

Teen porn movies 1607

HD Porn Video 1552 ryushare uploaded keep2share

HD Porn Video 1552

HD Porn Teen Sex Videos 2783 ryushare uploaded keep2share

HD Porn Teen Sex Videos 2783

sex short clips in high quality ryushare uploaded keep2share

sex short clips in high quality

Hot hd teen sex videos 4668 ryushare uploaded keep2share

Hot hd teen sex videos 4668

Porno young teens movies 2581 ryushare uploaded keep2share

Porno young teens movies 2581

Hardcore sex videos in the high definition quality 224111 ryushare uploaded keep2share

Hardcore sex videos in the high definition quality 224111

18YearsOld.com Alli Ray – Blindfold My Baby ryushare uploaded keep2share

18YearsOld.com Alli Ray – Blindfold My Baby

Teen Tits Tube, Young Girls Porn Videos 224467 ryushare uploaded keep2share

Teen Tits Tube, Young Girls Porn Videos 224467

Hot download sex girls movies 5685 ryushare uploaded keep2share

Hot download sex girls movies 5685

Free Porn Videos Xxx Movies Pussy Porn 3666 ryushare uploaded keep2share

Free Porn Videos Xxx Movies Pussy Porn 3666

Teen Sex Movies 223947 ryushare uploaded keep2share

Teen Sex Movies 223947

porn sex full hd high quality free downloding 226345 ryushare uploaded keep2share

porn sex full hd high quality free downloding 226345

Massage girl ryushare uploaded keep2share

Massage girl

Hot Japanese ryushare uploaded keep2share

Hot Japanese

Report broken links / Post a comment

You must be logged in to post a comment.



General\r\nComplete name : D:hd pornstars teens ryushare.com uploaded.net keep2share.cc fileom.com download porn movies clips PCGRSBls.mp4\r\nFormat : MPEG-4\r\nFormat profile : Base Media\r\nCodec ID : isom\r\nFile size : 635 MiB\r\nDuration : 19mn 58s\r\nOverall bit rate mode : Variable\r\nOverall bit rate : 4 444 Kbps\r\nWriting application : Lavf55.33.101\r\n\r\nVideo\r\nID : 1\r\nFormat : MPEG-4 Visual\r\nFormat profile : [email protected]\r\nFormat settings, BVOP : No\r\nFormat settings, QPel : No\r\nFormat settings, GMC : No warppoints\r\nFormat settings, Matrix : Default (H.263)\r\nCodec ID : 20\r\nDuration : 19mn 58s\r\nBit rate mode : Variable\r\nBit rate : 4 311 Kbps\r\nMaximum bit rate : 5 000 Kbps\r\nWidth : 1 280 pixels\r\nHeight : 720 pixels\r\nDisplay aspect ratio : 16:9\r\nFrame rate mode : Constant\r\nFrame rate : 25.000 fps\r\nColor space : YUV\r\nChroma subsampling : 4:2:0\r\nBit depth : 8 bits\r\nScan type : Progressive\r\nCompression mode : Lossy\r\nBits/(Pixel*Frame) : 0.187\r\nStream size : 616 MiB (97%)\r\nWriting library : Lavc55.52.102\r\nLanguage : English\r\n\r\nAudio\r\nID : 2\r\nFormat : AAC\r\nFormat/Info : Advanced Audio Codec\r\nFormat profile : LC\r\nCodec ID : 40\r\nDuration : 19mn 58s\r\nBit rate mode : Constant\r\nBit rate : 128 Kbps\r\nChannel(s) : 2 channels\r\nChannel positions : Front: L R\r\nSampling rate : 48.0 KHz\r\nCompression mode : Lossy\r\nStream size : 18.2 MiB (3%)\r\nLanguage : English\r\n\r\nhd pornstars teens ryushare.com uploaded.net keep2share.cc fileom.com download porn movies clips