Hot brunette – blowjob and fucked

Blonde fucked in all holes. Gang BangPorn massage young brunette

Posted in HD Porn, Pornstar, Sex Movies, Teen | 9477 Views |


Rate this girl !!!




\r\n\r\nhttp://img101.imagetwist.com/i/05130/zmgxcxkiw2u9.jpg\r\n\r\nHot brunette blowjob and fucked\r\n\r\n 



DOWNLOAD

Keep2share.cc - Uploaded.net - Openload.co - Rapidu.net


http://ryushare.com/2904a980fe78/MTRLRNmr.rar
http://keep2share.cc/file/52ddbb4efa709
http://ul.to/pryxt4cn


Premium here:
uploaded.net
keep2share.cc
rapidu.net.cc

Teens related to Hot brunette – blowjob and fucked


Wow girls downloads hd 224420 ryushare uploaded keep2share

Wow girls downloads hd 224420

Teenies Videos – Teen Porn, Teen Sex, XXX Free Videos 224066 ryushare uploaded keep2share

Teenies Videos – Teen Porn, Teen Sex, XXX Free Videos 224066

Teen porn xxx 225114 ryushare uploaded keep2share

Teen porn xxx 225114

Alexis Rodriguez – So Much Ass ryushare uploaded keep2share

Alexis Rodriguez – So Much Ass

porn movie hd romantic download 226228 ryushare uploaded keep2share

porn movie hd romantic download 226228

Sandy Sweet & Jessica Valentino ryushare uploaded keep2share

Sandy Sweet & Jessica Valentino

Public Pick Ups – Lili Devil ryushare uploaded keep2share

Public Pick Ups – Lili Devil

18OnlyGirls Nikita (Gina Devine) Here I Cum! ryushare uploaded keep2share

18OnlyGirls Nikita (Gina Devine) Here I Cum!

18 Years Old Girl – Episode 279 ryushare uploaded keep2share

18 Years Old Girl – Episode 279

www fist timrs sex x videos com 226534 ryushare uploaded keep2share

www fist timrs sex x videos com 226534

HDX 18X xxx com 226775 ryushare uploaded keep2share

HDX 18X xxx com 226775

Teen porn xxx 225802 ryushare uploaded keep2share

Teen porn xxx 225802

Young legal porn clips 4754 ryushare uploaded keep2share

Young legal porn clips 4754

Ariana Marie – Post Workout Sex ryushare uploaded keep2share

Ariana Marie – Post Workout Sex

Barezzers sexhd com 226100 ryushare uploaded keep2share

Barezzers sexhd com 226100

Hot Teen Sex 2164 ryushare uploaded keep2share

Hot Teen Sex 2164

Tube xxx 225500 ryushare uploaded keep2share

Tube xxx 225500

HD Teens Sex Tube Videos XxX 2388 ryushare uploaded keep2share

HD Teens Sex Tube Videos XxX 2388

Hot Teen Sex 1726 ryushare uploaded keep2share

Hot Teen Sex 1726

First time Sexual Films 18 sex xxx 3226 ryushare uploaded keep2share

First time Sexual Films 18 sex xxx 3226

Teen porn movies 1195 ryushare uploaded keep2share

Teen porn movies 1195

Yours Forever – Lisa ryushare uploaded keep2share

Yours Forever – Lisa

hd sex videos 1080p download for pc ryushare uploaded keep2share

hd sex videos 1080p download for pc

HD Teens Sex Tube Videos XxX 5397 ryushare uploaded keep2share

HD Teens Sex Tube Videos XxX 5397

Teen Sex Videos Tube Movies 224992 ryushare uploaded keep2share

Teen Sex Videos Tube Movies 224992

Adult Hardcore XXX Sex Videos 1343 ryushare uploaded keep2share

Adult Hardcore XXX Sex Videos 1343

Watch Teen Sex Videos HD 3515 ryushare uploaded keep2share

Watch Teen Sex Videos HD 3515

hd porn movi downlod 226138 ryushare uploaded keep2share

hd porn movi downlod 226138

klixen cipriana and cindy 226252 ryushare uploaded keep2share

klixen cipriana and cindy 226252

18YearsOld.com Alli Ray – Blindfold My Baby ryushare uploaded keep2share

18YearsOld.com Alli Ray – Blindfold My Baby

hb sex yes com ryushare uploaded keep2share

hb sex yes com

download free xxx sex hd 226387 ryushare uploaded keep2share

download free xxx sex hd 226387

// hq720p porn com 226758 ryushare uploaded keep2share

// hq720p porn com 226758

HD Porn Teen Sex Videos 224669 ryushare uploaded keep2share

HD Porn Teen Sex Videos 224669

Report broken links / Post a comment

You must be logged in to post a comment.



General\r\nComplete name : D:Hot brunette - blowjob and fuckedMTRLRNmrMTRLRNmr.mov\r\nFormat : MPEG-4\r\nFormat profile : QuickTime\r\nCodec ID : qt \r\nFile size : 606 MiB\r\nDuration : 17mn 50s\r\nOverall bit rate : 4 744 Kbps\r\nWriting application : Lavf54.61.104\r\n\r\nVideo\r\nID : 1\r\nFormat : AVC\r\nFormat/Info : Advanced Video Codec\r\nFormat profile : [email protected]\r\nFormat settings, CABAC : No\r\nFormat settings, ReFrames : 2 frames\r\nCodec ID : avc1\r\nCodec ID/Info : Advanced Video Coding\r\nDuration : 17mn 50s\r\nBit rate : 4 488 Kbps\r\nWidth : 1 280 pixels\r\nHeight : 720 pixels\r\nDisplay aspect ratio : 16:9\r\nFrame rate mode : Constant\r\nFrame rate : 29.970 fps\r\nColor space : YUV\r\nChroma subsampling : 4:2:0\r\nBit depth : 8 bits\r\nScan type : Progressive\r\nBits/(Pixel*Frame) : 0.162\r\nStream size : 573 MiB (95%)\r\nLanguage : English\r\nColor primaries : BT.709\r\nTransfer characteristics : BT.709\r\nMatrix coefficients : BT.709\r\n\r\nAudio\r\nID : 2\r\nFormat : AAC\r\nFormat/Info : Advanced Audio Codec\r\nFormat profile : LC\r\nCodec ID : 40\r\nDuration : 17mn 50s\r\nBit rate mode : Constant\r\nBit rate : 248 Kbps\r\nChannel(s) : 2 channels\r\nChannel positions : Front: L R\r\nSampling rate : 44.1 KHz\r\nCompression mode : Lossy\r\nStream size : 31.6 MiB (5%)\r\nLanguage : English\r\n\r\n