Hot brunette blowjob

A lot of cocks for a teenSkinny brunette

Posted in HD Porn, Sex Movies, Teen | 11415 Views |


Rate this girl !!!




\r\n\r\n\r\n\r\nHot sex with brunette\r\n\r\n Link(770 Mb||16:24||1920*1080||MP4)



DOWNLOAD

Keep2share.cc - Uploaded.net - Openload.co - Rapidu.net


http://keep2share.cc/file/52e620091abeb
http://ryushare.com/s5ggkslccdkd/GTDHMJnr.rar
http://ul.to/v0t612sl


Premium here:
uploaded.net
keep2share.cc
rapidu.net.cc


Tags: ,

Teens related to Hot brunette blowjob


HD teen sex tube 4210 ryushare uploaded keep2share

HD teen sex tube 4210

Teen Sex Movies Young Porn Tube Vids 224457 ryushare uploaded keep2share

Teen Sex Movies Young Porn Tube Vids 224457

teens sex vidio indir 226595 ryushare uploaded keep2share

teens sex vidio indir 226595

21Naturals.com Ava Dalush – Puppeteer ryushare uploaded keep2share

21Naturals.com Ava Dalush – Puppeteer

Low mb full hd sex video download 226510 ryushare uploaded keep2share

Low mb full hd sex video download 226510

Wow Xxxsexvideos Com 226707 ryushare uploaded keep2share

Wow Xxxsexvideos Com 226707

sex videos 18 226639 ryushare uploaded keep2share

sex videos 18 226639

Free Teen Porn Videos at Teen Sex Tube XXX 225611 ryushare uploaded keep2share

Free Teen Porn Videos at Teen Sex Tube XXX 225611

Hd quality – Teen sex video 2401 ryushare uploaded keep2share

Hd quality – Teen sex video 2401

girlboy xxxwalpaper 226160 ryushare uploaded keep2share

girlboy xxxwalpaper 226160

Connie Carter – Slippery Sweet ryushare uploaded keep2share

Connie Carter – Slippery Sweet

Hot hd teen sex videos 3912 ryushare uploaded keep2share

Hot hd teen sex videos 3912

Adult Hardcore XXX Sex Videos 1879 ryushare uploaded keep2share

Adult Hardcore XXX Sex Videos 1879

Teen Sex Movies 5445 ryushare uploaded keep2share

Teen Sex Movies 5445

HD Teen Sex Tube 225339 ryushare uploaded keep2share

HD Teen Sex Tube 225339

1280×920 hd porn movie 226498 ryushare uploaded keep2share

1280×920 hd porn movie 226498

Free Teen Porn Videos at Teen Sex Tube XXX 2592 ryushare uploaded keep2share

Free Teen Porn Videos at Teen Sex Tube XXX 2592

Eva Karera, Jasmine Gomez, TeachSex ryushare uploaded keep2share

Eva Karera, Jasmine Gomez, TeachSex

Young Virgin Pussy Teen Fuck Tube 4173 ryushare uploaded keep2share

Young Virgin Pussy Teen Fuck Tube 4173

Argentina and Anfisa ryushare uploaded keep2share

Argentina and Anfisa

Teenage Fuck Clips 225869 ryushare uploaded keep2share

Teenage Fuck Clips 225869

Wow porn tube movies 224325 ryushare uploaded keep2share

Wow porn tube movies 224325

Nude Teens fucking hard 1320 ryushare uploaded keep2share

Nude Teens fucking hard 1320

HD Sex World Videos High Definition Free Porn 5219 ryushare uploaded keep2share

HD Sex World Videos High Definition Free Porn 5219

Www pinkworld com hd xxx video 226174 ryushare uploaded keep2share

Www pinkworld com hd xxx video 226174

www hdworld xxx video com ryushare uploaded keep2share

www hdworld xxx video com

Janette – Today Was Amazing ryushare uploaded keep2share

Janette – Today Was Amazing

HD Teen Sex Tube 1330 ryushare uploaded keep2share

HD Teen Sex Tube 1330

Wow porn tube movies 5631 ryushare uploaded keep2share

Wow porn tube movies 5631

Good Teen Tube Sexy Young Naked Girls Movies 2157 ryushare uploaded keep2share

Good Teen Tube Sexy Young Naked Girls Movies 2157

Free Teen Porn Videos at Teen Sex Tube XXX 5546 ryushare uploaded keep2share

Free Teen Porn Videos at Teen Sex Tube XXX 5546

Nubiles-Porn Sierra Nevadah – Fucking Love ryushare uploaded keep2share

Nubiles-Porn Sierra Nevadah – Fucking Love

Young Sex Movies 4459 ryushare uploaded keep2share

Young Sex Movies 4459

pon ster xxxxxx ryushare uploaded keep2share

pon ster xxxxxx

Teen Sex Movies 2658 ryushare uploaded keep2share

Teen Sex Movies 2658

Report broken links / Post a comment

You must be logged in to post a comment.



General\r\nComplete name : D:Hot sex with brunetteGTDHMJnrGTDHMJnr.mp4\r\nFormat : MPEG-4\r\nFormat profile : Base Media\r\nCodec ID : isom\r\nFile size : 770 MiB\r\nDuration : 16mn 24s\r\nOverall bit rate mode : Variable\r\nOverall bit rate : 6 558 Kbps\r\nWriting application : Lavf54.22.100\r\n\r\nVideo\r\nID : 1\r\nFormat : MPEG-4 Visual\r\nFormat profile : [email protected]\r\nFormat settings, BVOP : No\r\nFormat settings, QPel : No\r\nFormat settings, GMC : No warppoints\r\nFormat settings, Matrix : Default (H.263)\r\nCodec ID : 20\r\nDuration : 16mn 24s\r\nBit rate mode : Variable\r\nBit rate : 6 451 Kbps\r\nMaximum bit rate : 8 500 Kbps\r\nWidth : 1 920 pixels\r\nHeight : 1 080 pixels\r\nDisplay aspect ratio : 16:9\r\nFrame rate mode : Constant\r\nFrame rate : 23.976 fps\r\nColor space : YUV\r\nChroma subsampling : 4:2:0\r\nBit depth : 8 bits\r\nScan type : Progressive\r\nCompression mode : Lossy\r\nBits/(Pixel*Frame) : 0.130\r\nStream size : 757 MiB (98%)\r\nWriting library : Lavc54.46.100\r\nLanguage : English\r\n\r\nAudio\r\nID : 2\r\nFormat : AAC\r\nFormat/Info : Advanced Audio Codec\r\nFormat profile : LC\r\nCodec ID : 40\r\nDuration : 16mn 24s\r\nBit rate mode : Variable\r\nBit rate : 103 Kbps\r\nMaximum bit rate : 128 Kbps\r\nChannel(s) : 2 channels\r\nChannel positions : Front: L R\r\nSampling rate : 48.0 KHz\r\nCompression mode : Lossy\r\nStream size : 12.0 MiB (2%)\r\nLanguage : English\r\n\r\n