Hot hd teen sex videos 2966

Fresh Teen Videos 2970Young Virgin Pussy Teen Fuck Tube 2962

Posted in HD Porn, Pornstar, Sex Movies, Teen | 6871 Views |


Rate this girl !!!




\r\n\r\n4.jpg\r\n\r\nLink(598 Mb||32:17||1280*720||MP4)



DOWNLOAD

Keep2share.cc - Uploaded.net - Openload.co - Rapidu.net


http://k2s.cc/file/8bf3d0476500e/JSTDGRsn.mp4
http://ryushare.com/2iyqh76wzi0n/JSTDGRsn.mp4
http://ul.to/kunz33nf/JSTDGRsn.mp4


Premium here:
uploaded.net
keep2share.cc
rapidu.net.cc


Teens related to Hot hd teen sex videos 2966


Hd quality – Teen sex video 1299 ryushare uploaded keep2share

Hd quality – Teen sex video 1299

Nude Teens fucking hard 1825 ryushare uploaded keep2share

Nude Teens fucking hard 1825

Squirters Juice Bar Carla Cox ryushare uploaded keep2share

Squirters Juice Bar Carla Cox

High Definition Movies on HD Teen Porn XXX Tube 1249 ryushare uploaded keep2share

High Definition Movies on HD Teen Porn XXX Tube 1249

PC HD MP4 XXX COM 226748 ryushare uploaded keep2share

PC HD MP4 XXX COM 226748

Watch Teen Sex Videos HD 1246 ryushare uploaded keep2share

Watch Teen Sex Videos HD 1246

Teen Sex Movies Young Porn Tube Vids 1253 ryushare uploaded keep2share

Teen Sex Movies Young Porn Tube Vids 1253

Hd young videos 1610 ryushare uploaded keep2share

Hd young videos 1610

Beautifull Blonde Models – Ponstars  Orgy Threesome ryushare uploaded keep2share

Beautifull Blonde Models – Ponstars Orgy Threesome

www sexhdmovus com ryushare uploaded keep2share

www sexhdmovus com

Wow Girls Porn Clips download 224663 ryushare uploaded keep2share

Wow Girls Porn Clips download 224663

[RylskyArt.com] Solana – Kasanya ryushare uploaded keep2share

[RylskyArt.com] Solana – Kasanya

SEX HD V MOVIE PC COM 226146 ryushare uploaded keep2share

SEX HD V MOVIE PC COM 226146

Hardcore sex videos in the high definition quality 1260 ryushare uploaded keep2share

Hardcore sex videos in the high definition quality 1260

www yes video xxx com 226468 ryushare uploaded keep2share

www yes video xxx com 226468

High Definition Movies on HD 1683 ryushare uploaded keep2share

High Definition Movies on HD 1683

Www sexy videos shart mb com 226066 ryushare uploaded keep2share

Www sexy videos shart mb com 226066

Teen Porn XXX Tube 1144 ryushare uploaded keep2share

Teen Porn XXX Tube 1144

Hot Teen Sex 224220 ryushare uploaded keep2share

Hot Teen Sex 224220

hd porn videos in England 226222 ryushare uploaded keep2share

hd porn videos in England 226222

germanya xxxx com 226752 ryushare uploaded keep2share

germanya xxxx com 226752

Young Virgin Pussy Teen Fuck Tube 224968 ryushare uploaded keep2share

Young Virgin Pussy Teen Fuck Tube 224968

Teenage Fuck Clips 3782 ryushare uploaded keep2share

Teenage Fuck Clips 3782

Tube xxx 223900 ryushare uploaded keep2share

Tube xxx 223900

Aiko Mai, Angellina – Sweet Like Candy ryushare uploaded keep2share

Aiko Mai, Angellina – Sweet Like Candy

HD Sex World Videos High Definition Free Porn 225104 ryushare uploaded keep2share

HD Sex World Videos High Definition Free Porn 225104

Free Porn Videos Xxx Movies Pussy Porn 225817 ryushare uploaded keep2share

Free Porn Videos Xxx Movies Pussy Porn 225817

Wow porn tube movies 224906 ryushare uploaded keep2share

Wow porn tube movies 224906

[Manyvids.com] Codi Vore (Sucking My First Cock! POV BJ and Facial) Codi Vore – Sucking My First Cock! POV BJ and Facial [2016 г., Webcam,Blondes,Big natural tits,Boobs,POV,Blowjob,Cum shots,Facial,Tit fuck,. 1080p] ryushare uploaded keep2share

[Manyvids.com] Codi Vore (Sucking My First Cock! POV BJ and Facial) Codi Vore – Sucking My First Cock! POV BJ and Facial [2016 г., Webcam,Blondes,Big natural tits,Boobs,POV,Blowjob,Cum shots,Facial,Tit fuck,. 1080p]

Teen Sex Movies 225608 ryushare uploaded keep2share

Teen Sex Movies 225608

Jessica Rayne – Jerk Off Instruction – Blowjob ryushare uploaded keep2share

Jessica Rayne – Jerk Off Instruction – Blowjob

Wow porn hd downloads 224563 ryushare uploaded keep2share

Wow porn hd downloads 224563

Teen Porn XXX Tube 225059 ryushare uploaded keep2share

Teen Porn XXX Tube 225059

Free Young Porn Videos XXX Teen Porn 225792 ryushare uploaded keep2share

Free Young Porn Videos XXX Teen Porn 225792

Porn HQ Movei free downlode ryushare uploaded keep2share

Porn HQ Movei free downlode

Report broken links / Post a comment

You must be logged in to post a comment.



General\r\nComplete name : D:HD Porn Teens Sex movies tube online downloadJSTDGRsn.mp4\r\nFormat : MPEG-4\r\nFormat profile : Base Media\r\nCodec ID : isom\r\nFile size : 598 MiB\r\nDuration : 32mn 17s\r\nOverall bit rate mode : Variable\r\nOverall bit rate : 2 590 Kbps\r\nEncoded date : UTC 1970-01-01 00:00:00\r\nTagged date : UTC 1970-01-01 00:00:00\r\nWriting application : Lavf52.64.2\r\n\r\nVideo\r\nID : 1\r\nFormat : AVC\r\nFormat/Info : Advanced Video Codec\r\nFormat profile : [email protected]\r\nFormat settings, CABAC : Yes\r\nFormat settings, ReFrames : 2 frames\r\nCodec ID : avc1\r\nCodec ID/Info : Advanced Video Coding\r\nDuration : 32mn 17s\r\nBit rate : 2 483 Kbps\r\nWidth : 1 280 pixels\r\nHeight : 720 pixels\r\nDisplay aspect ratio : 16:9\r\nFrame rate mode : Constant\r\nFrame rate : 29.970 fps\r\nColor space : YUV\r\nChroma subsampling : 4:2:0\r\nBit depth : 8 bits\r\nScan type : Progressive\r\nBits/(Pixel*Frame) : 0.090\r\nStream size : 573 MiB (96%)\r\nWriting library : x264 core 102 r1666 d058f37\r\nEncoding settings : cabac=1 / ref=2 / deblock=1:0:0 / analyse=0x3:0x113 / me=hex / subme=6 / psy=1 / psy_rd=1.00:0.00 / mixed_ref=0 / me_range=16 / chroma_me=1 / trellis=0 / 8x8dct=1 / cqm=0 / deadzone=21,11 / fast_pskip=1 / chroma_qp_offset=-2 / threads=24 / sliced_threads=0 / nr=0 / decimate=1 / interlaced=0 / constrained_intra=0 / bframes=3 / b_pyramid=0 / b_adapt=1 / b_bias=0 / direct=3 / weightb=1 / open_gop=0 / weightp=2 / keyint=250 / keyint_min=25 / scenecut=40 / intra_refresh=0 / rc_lookahead=40 / rc=crf / mbtree=1 / crf=20.0 / qcomp=0.60 / qpmin=10 / qpmax=51 / qpstep=4 / ip_ratio=1.41 / aq=1:1.00\r\nEncoded date : UTC 1970-01-01 00:00:00\r\nTagged date : UTC 1970-01-01 00:00:00\r\n\r\nAudio\r\nID : 2\r\nFormat : AAC\r\nFormat/Info : Advanced Audio Codec\r\nFormat profile : LC\r\nCodec ID : 40\r\nDuration : 32mn 17s\r\nBit rate mode : Variable\r\nBit rate : 101 Kbps\r\nChannel(s) : 2 channels\r\nChannel positions : Front: L R\r\nSampling rate : 44.1 KHz\r\nCompression mode : Lossy\r\nStream size : 23.4 MiB (4%)\r\nEncoded date : UTC 1970-01-01 00:00:00\r\nTagged date : UTC 1970-01-01 00:00:00\r\n\r\n