Hot sex girls movies download 2920

HD Porn Videos 2925Teen sex xxx hd 2916

Posted in Amateur, HD Porn, Sex Movies, Teen | 13459 Views |


Rate this girl !!!




\r\n\r\n\r\n4.jpeg\r\n\r\nLink(957 Mb||36:51||1280*720||MP4)



DOWNLOAD

Keep2share.cc - Uploaded.net - Openload.co - Rapidu.net


http://k2s.cc/file/7d544ff508243/NGSBDRlz.mp4
http://ryushare.com/1kxyww91u308/NGSBDRlz.mp4
http://ul.to/9qmrt299/NGSBDRlz.mp4


Premium here:
uploaded.net
keep2share.cc
rapidu.net.cc


Teens related to Hot sex girls movies download 2920


Teen 18 Porn XXX Clips Naked 225311 ryushare uploaded keep2share

Teen 18 Porn XXX Clips Naked 225311

HD sex movies downloads 3688 ryushare uploaded keep2share

HD sex movies downloads 3688

hardcore sex hd download 226587 ryushare uploaded keep2share

hardcore sex hd download 226587

Porno movies young teens lesbian 5245 ryushare uploaded keep2share

Porno movies young teens lesbian 5245

Alexia aka Kitty Jane (Secret Part I) ryushare uploaded keep2share

Alexia aka Kitty Jane (Secret Part I)

Wow porn tube movies 224880 ryushare uploaded keep2share

Wow porn tube movies 224880

Daisy, Jasmine – Boats n Hoes ryushare uploaded keep2share

Daisy, Jasmine – Boats n Hoes

www sxc a2z hd ryushare uploaded keep2share

www sxc a2z hd

Porn HD Sex HD Teen Sex 3480 ryushare uploaded keep2share

Porn HD Sex HD Teen Sex 3480

Teens sex mania 5553 ryushare uploaded keep2share

Teens sex mania 5553

1280×920 hd porn movie 226498 ryushare uploaded keep2share

1280×920 hd porn movie 226498

Very hot brunette fucked ryushare uploaded keep2share

Very hot brunette fucked

Hd quality – Teen sex video 1189 ryushare uploaded keep2share

Hd quality – Teen sex video 1189

Nude Teens fucking hard 1979 ryushare uploaded keep2share

Nude Teens fucking hard 1979

HD Porn Teen Sex Videos 225413 ryushare uploaded keep2share

HD Porn Teen Sex Videos 225413

Hardcore sex videos in the high definition quality 224111 ryushare uploaded keep2share

Hardcore sex videos in the high definition quality 224111

fast tiam movie hot xxx hd free 226715 ryushare uploaded keep2share

fast tiam movie hot xxx hd free 226715

Hardcore Sex Hub 3916 ryushare uploaded keep2share

Hardcore Sex Hub 3916

iglish porn sexi 226443 ryushare uploaded keep2share

iglish porn sexi 226443

[LegalPorno.com] Rebecca Volpetti (Rebecca Volpetti goes hardcore: 3on1 anal & DP SZ1298) [2016 г., Gonzo, Gangbang, Anal, DP, Swallow, 720p] Страницы:  1 ryushare uploaded keep2share

[LegalPorno.com] Rebecca Volpetti (Rebecca Volpetti goes hardcore: 3on1 anal & DP SZ1298) [2016 г., Gonzo, Gangbang, Anal, DP, Swallow, 720p] Страницы: 1

Wow girls downloads hd 224557 ryushare uploaded keep2share

Wow girls downloads hd 224557

hd format sex video free downloado 226108 ryushare uploaded keep2share

hd format sex video free downloado 226108

Teenage Fuck Clips 5122 ryushare uploaded keep2share

Teenage Fuck Clips 5122

Teens in Porno young porn videos and free teen sex 5650 ryushare uploaded keep2share

Teens in Porno young porn videos and free teen sex 5650

Sweet Teen Porn – Teena Dolly ryushare uploaded keep2share

Sweet Teen Porn – Teena Dolly

Chelsea – First & Forever ryushare uploaded keep2share

Chelsea – First & Forever

High Definition Movies on HD 4341 ryushare uploaded keep2share

High Definition Movies on HD 4341

Teen xxx sex hd 223813 ryushare uploaded keep2share

Teen xxx sex hd 223813

Teens in Porno young porn videos and free teen sex 225503 ryushare uploaded keep2share

Teens in Porno young porn videos and free teen sex 225503

Anjelica – My Inner Feelings ryushare uploaded keep2share

Anjelica – My Inner Feelings

Sweet Teen Porn – Young Porn Videos 1653 ryushare uploaded keep2share

Sweet Teen Porn – Young Porn Videos 1653

K Craving Lips 3 – B ryushare uploaded keep2share

K Craving Lips 3 – B

My bigtits girlfriend fornication – in the sack ryushare uploaded keep2share

My bigtits girlfriend fornication – in the sack

www xxx videos dawnload com ryushare uploaded keep2share

www xxx videos dawnload com

HD Porn Videos 4503 ryushare uploaded keep2share

HD Porn Videos 4503

Report broken links / Post a comment

You must be logged in to post a comment.



General\r\nComplete name : D:HD Porn Teens Sex movies tube online downloadNGSBDRlz.mp4\r\nFormat : MPEG-4\r\nFormat profile : Base Media\r\nCodec ID : isom\r\nFile size : 957 MiB\r\nDuration : 36mn 51s\r\nOverall bit rate mode : Variable\r\nOverall bit rate : 3 630 Kbps\r\nWriting application : Lavf54.63.104\r\n\r\nVideo\r\nID : 1\r\nFormat : AVC\r\nFormat/Info : Advanced Video Codec\r\nFormat profile : [email protected]\r\nFormat settings, CABAC : Yes\r\nFormat settings, ReFrames : 4 frames\r\nCodec ID : avc1\r\nCodec ID/Info : Advanced Video Coding\r\nDuration : 36mn 51s\r\nBit rate : 3 500 Kbps\r\nWidth : 1 280 pixels\r\nHeight : 720 pixels\r\nDisplay aspect ratio : 16:9\r\nFrame rate mode : Constant\r\nFrame rate : 30.000 fps\r\nColor space : YUV\r\nChroma subsampling : 4:2:0\r\nBit depth : 8 bits\r\nScan type : Progressive\r\nBits/(Pixel*Frame) : 0.127\r\nStream size : 924 MiB (97%)\r\nWriting library : x264 core 120\r\nEncoding settings : cabac=1 / ref=3 / deblock=1:0:0 / analyse=0x3:0x113 / me=hex / subme=6 / psy=1 / psy_rd=1.00:0.00 / mixed_ref=1 / me_range=16 / chroma_me=1 / trellis=2 / 8x8dct=1 / cqm=0 / deadzone=21,11 / fast_pskip=1 / chroma_qp_offset=-2 / threads=12 / sliced_threads=0 / nr=0 / decimate=1 / interlaced=0 / bluray_compat=0 / constrained_intra=0 / bframes=3 / b_pyramid=2 / b_adapt=2 / b_bias=0 / direct=1 / weightb=1 / open_gop=0 / weightp=2 / keyint=60 / keyint_min=25 / scenecut=40 / intra_refresh=0 / rc_lookahead=40 / rc=abr / mbtree=1 / bitrate=3500 / ratetol=1.0 / qcomp=0.60 / qpmin=0 / qpmax=69 / qpstep=4 / ip_ratio=1.41 / aq=1:1.00\r\nLanguage : English\r\n\r\nAudio\r\nID : 2\r\nFormat : AAC\r\nFormat/Info : Advanced Audio Codec\r\nFormat profile : LC\r\nCodec ID : 40\r\nDuration : 36mn 51s\r\nDuration_LastFrame : -11ms\r\nBit rate mode : Variable\r\nBit rate : 117 Kbps\r\nMaximum bit rate : 128 Kbps\r\nChannel(s) : 2 channels\r\nChannel positions : Front: L R\r\nSampling rate : 44.1 KHz\r\nCompression mode : Lossy\r\nDelay relative to video : 67ms\r\nStream size : 30.9 MiB (3%)\r\nLanguage : English\r\n\r\n