Hot Teen Sex 3611

HD sex movies downloads 3614First time Sexual Films 18 sex xxx 3607

Posted in Amateur, HD Porn, Sex Movies, Teen | 9677 Views |


Rate this girl !!!




\r\n\r\n \r\n\r\n2.jpeg



DOWNLOAD

Keep2share.cc - Uploaded.net - Openload.co - Rapidu.net


http://ul.to/xj0gcr1t/YNGCRScl.mp4
http://ryushare.com/vky7km2q2nrr/YNGCRScl.mp4
http://k2s.cc/file/3a53c62271d12/YNGCRScl.mp4
http://fileom.com/encp5arafn8s/YNGCRScl.mp4.html


Premium here:
uploaded.net
keep2share.cc
rapidu.net.cc


Teens related to Hot Teen Sex 3611


Hd quality – Teen sex video 223909 ryushare uploaded keep2share

Hd quality – Teen sex video 223909

XXX/H/XX/ ryushare uploaded keep2share

XXX/H/XX/

Teenies Videos – Teen Porn, Teen Sex, XXX Free Videos 4444 ryushare uploaded keep2share

Teenies Videos – Teen Porn, Teen Sex, XXX Free Videos 4444

Linda S – I’Am Your Woman ryushare uploaded keep2share

Linda S – I’Am Your Woman

Wow Porn Movies download) 225133 ryushare uploaded keep2share

Wow Porn Movies download) 225133

18OnlyGirls.com – Violette ryushare uploaded keep2share

18OnlyGirls.com – Violette

Young teens tube hot girls free porn video 5384 ryushare uploaded keep2share

Young teens tube hot girls free porn video 5384

xxx garls and boys 226650 ryushare uploaded keep2share

xxx garls and boys 226650

Hd young videos 4049 ryushare uploaded keep2share

Hd young videos 4049

Young XXX Tube Videos 2812 ryushare uploaded keep2share

Young XXX Tube Videos 2812

[PublicAgent.com] Nicole Love – Perfect Boobs Flashed in Public ryushare uploaded keep2share

[PublicAgent.com] Nicole Love – Perfect Boobs Flashed in Public

8 Teen XXX – Teen Sex 1386 ryushare uploaded keep2share

8 Teen XXX – Teen Sex 1386

HD Porn Video 1552 ryushare uploaded keep2share

HD Porn Video 1552

Paula Shy – AfterParty – Sex Art ryushare uploaded keep2share

Paula Shy – AfterParty – Sex Art

8teen xxx pcHD com ryushare uploaded keep2share

8teen xxx pcHD com

HQ xxx videos in free download ryushare uploaded keep2share

HQ xxx videos in free download

High Definition Movies on HD 1894 ryushare uploaded keep2share

High Definition Movies on HD 1894

www hd xvideos hardcore teeny girl ryushare uploaded keep2share

www hd xvideos hardcore teeny girl

First time Sexual Films 18 sex xxx 4718 ryushare uploaded keep2share

First time Sexual Films 18 sex xxx 4718

Young Sex Movies 224764 ryushare uploaded keep2share

Young Sex Movies 224764

Porno movies young teens lesbian 225217 ryushare uploaded keep2share

Porno movies young teens lesbian 225217

[RylskyArt.com] Gia – Shadows ryushare uploaded keep2share

[RylskyArt.com] Gia – Shadows

Episode 240 – 20 years old GirlsDoPorn.com ryushare uploaded keep2share

Episode 240 – 20 years old GirlsDoPorn.com

hd format sex video free downloado 226108 ryushare uploaded keep2share

hd format sex video free downloado 226108

BLU FIMS BFXX GILRS COM 226254 ryushare uploaded keep2share

BLU FIMS BFXX GILRS COM 226254

HD Teens Sex Tube Videos XxX 225747 ryushare uploaded keep2share

HD Teens Sex Tube Videos XxX 225747

HD Porn Teen Sex Videos 225413 ryushare uploaded keep2share

HD Porn Teen Sex Videos 225413

Teen porn movies 225949 ryushare uploaded keep2share

Teen porn movies 225949

full 1280p xxx video 226633 ryushare uploaded keep2share

full 1280p xxx video 226633

SpinChix mp4 226131 ryushare uploaded keep2share

SpinChix mp4 226131

Hot Teen Sex 2145 ryushare uploaded keep2share

Hot Teen Sex 2145

Xxx fuka in 226353 ryushare uploaded keep2share

Xxx fuka in 226353

Teen porn xxx 224460 ryushare uploaded keep2share

Teen porn xxx 224460

Young Sex Movies 5419 ryushare uploaded keep2share

Young Sex Movies 5419

Wow porn tube movies 225953 ryushare uploaded keep2share

Wow porn tube movies 225953

Report broken links / Post a comment

You must be logged in to post a comment.



General\r\nComplete name : D:hd pornstars teens ryushare.com uploaded.net keep2share.cc fileom.comYNGCRScl.mp4\r\nFormat : MPEG-4\r\nFormat profile : Base Media\r\nCodec ID : isom\r\nFile size : 399 MiB\r\nDuration : 27mn 2s\r\nOverall bit rate : 2 063 Kbps\r\nWriting application : Lavf54.22.101\r\n\r\nVideo\r\nID : 1\r\nFormat : AVC\r\nFormat/Info : Advanced Video Codec\r\nFormat profile : [email protected]\r\nFormat settings, CABAC : Yes\r\nFormat settings, ReFrames : 4 frames\r\nCodec ID : avc1\r\nCodec ID/Info : Advanced Video Coding\r\nDuration : 27mn 2s\r\nBit rate : 1 929 Kbps\r\nWidth : 1 280 pixels\r\nHeight : 720 pixels\r\nDisplay aspect ratio : 16:9\r\nFrame rate mode : Constant\r\nFrame rate : 25.000 fps\r\nColor space : YUV\r\nChroma subsampling : 4:2:0\r\nBit depth : 8 bits\r\nScan type : Progressive\r\nBits/(Pixel*Frame) : 0.084\r\nStream size : 373 MiB (93%)\r\nWriting library : x264 core 125\r\nEncoding settings : cabac=1 / ref=3 / deblock=1:0:0 / analyse=0x3:0x113 / me=hex / subme=7 / psy=1 / psy_rd=1.00:0.00 / mixed_ref=1 / me_range=16 / chroma_me=1 / trellis=0 / 8x8dct=1 / cqm=0 / deadzone=21,11 / fast_pskip=1 / chroma_qp_offset=-2 / threads=8 / lookahead_threads=1 / sliced_threads=0 / nr=0 / decimate=1 / interlaced=0 / bluray_compat=0 / constrained_intra=0 / bframes=8 / b_pyramid=2 / b_adapt=1 / b_bias=0 / direct=1 / weightb=1 / open_gop=0 / weightp=2 / keyint=50 / keyint_min=5 / scenecut=40 / intra_refresh=0 / rc_lookahead=40 / rc=crf / mbtree=1 / crf=20.0 / qcomp=0.60 / qpmin=0 / qpmax=69 / qpstep=4 / ip_ratio=1.40 / aq=1:1.00\r\n\r\nAudio\r\nID : 2\r\nFormat : AAC\r\nFormat/Info : Advanced Audio Codec\r\nFormat profile : LC\r\nCodec ID : 40\r\nDuration : 27mn 2s\r\nBit rate mode : Constant\r\nBit rate : 128 Kbps\r\nChannel(s) : 2 channels\r\nChannel positions : Front: L R\r\nSampling rate : 44.1 KHz\r\nCompression mode : Lossy\r\nStream size : 24.8 MiB (6%)\r\n\r\nhd pornstars teens ryushare.com uploaded.net keep2share.cc fileom.com\r\n